<?xml version="1.0" encoding="UTF-8" standalone="no"?>
<!DOCTYPE svg PUBLIC "-//W3C//DTD SVG 1.1//EN" "http://www.w3.org/Graphics/SVG/1.1/DTD/svg11.dtd">
<!--
2018-6-14: Created with FontForge (http://fontforge.org)
-->
<svg xmlns="http://www.w3.org/2000/svg" xmlns:xlink="http://www.w3.org/1999/xlink" version="1.1">
<metadata>
Created by FontForge 20160407 at Thu Jun 14 08:50:34 2018
 By Adam Bradley
Copyright (c) 2018, Adam Bradley
</metadata>
<defs>
<font id="Ionicons" horiz-adv-x="416">
  <font-face font-family="Ionicons" font-weight="400" font-stretch="normal" units-per-em="512" panose-1="2 0 5 3 0 0 0 0 0 0" ascent="448" descent="-64" bbox="-0.75 -64 512.487 448" underline-thickness="25.6" underline-position="-51.2" unicode-range="U+F100-F4CD"/>
    <missing-glyph/>
    <glyph glyph-name="ion-ios-color-fill" unicode="" horiz-adv-x="384" d="M167 330l172 -170c4 -4 1 -11 -5 -11v0c-10 0 -23 -1 -29 -7c-8 -8 -88 -86 -126 -123c-11 -10 -28 -10 -39 0l-131 126c-11 11 -12 29 -1 40l85 84l-50 49c-19 19 -19 49 0 68v0c9 9 22 14 34 14s25 -5 34 -14l56 -56v0zM64 338l48 -49l29 28l-50 49c-4 4 -9 6 -14 6 c-6 0 -11 -3 -15 -8c-6 -8 -5 -19 2 -26zM339 108c11 -12 45 -53 45 -76c0 -26 -22 -48 -48 -48v0c-26 0 -48 21 -48 48c0 22 35 64 45 76c2 2 4 2 6 0z"/>
    <glyph glyph-name="ion-md-backspace" unicode="" horiz-adv-x="426" d="M390 352c20 0 36 -16 36 -36v-248c0 -20 -16 -36 -36 -36h-266c-12 0 -22 7 -28 16l-96 144l96 144c6 9 16 16 28 16h266zM337 128l-63 64l63 64l-25 25l-64 -64l-63 64l-25 -25l64 -64l-64 -64l25 -25l63 64l64 -64z"/>
    <glyph glyph-name="ion-md-paper-plane" unicode="" d="M0 177l416 223l-104 -416l-104 104l-74 -104l-15 148zM295 51l73 288l-291 -156l69 -25l181 138l-115 -161z"/>
    <glyph glyph-name="ion-ios-cart" unicode="" d="M88 24c0 13 10 24 23 24s25 -11 25 -24s-11 -24 -24 -24s-24 11 -24 24zM336 0c-13 0 -24 12 -24 25s12 23 25 23s23 -12 23 -25s-11 -23 -24 -23zM416 316v-3l-16 -116c0 -3 -2 -5 -5 -5l-278 -47v0l4 -24c3 -16 7 -23 11 -26c3 -3 7 -3 9 -3v0h237c8 0 14 -6 14 -14 s-6 -14 -14 -14h-237c-13 0 -25 5 -33 16c-7 9 -12 22 -14 36l-40 212s-2 9 -2 10v0c-1 7 -5 15 -10 16s-17 2 -26 2s-16 5 -16 14s7 14 16 14c27 0 41 0 49 -9c6 -8 8 -12 12 -19c1 -3 5 -4 8 -4l325 -32c2 0 5 -2 6 -4z"/>
    <glyph glyph-name="ion-ios-rose" unicode="" horiz-adv-x="320" d="M320 307c-77 -89 -16 -136 -16 -204s-56 -119 -144 -119s-144 47 -144 115c0 60 35 100 93 131c25 14 33 17 52 26c30 13 65 27 105 38c17 5 35 9 54 13zM39 206c5 38 3 91 -39 135c0 0 66 -15 115 -41c14 -8 28 -17 37 -27c-12 -6 -24 -11 -36 -17c-7 -4 -14 -7 -20 -11 c-25 -14 -44 -29 -57 -39zM256 370c0 0 26 -29 32 -51c-33 -7 -78 -20 -115 -36c-15 15 -43 32 -43 32c52 56 126 55 126 55zM144 351c-12 -8 -21 -16 -31 -27c-26 12 -41 18 -62 24c5 14 14 31 29 52c0 0 35 -11 64 -49z"/>
    <glyph glyph-name="ion-ios-refresh" unicode="" horiz-adv-x="384" d="M369 159v0c9 0 16 -7 15 -16c-8 -98 -91 -175 -192 -175c-106 0 -192 85 -192 191c0 104 84 189 188 191c2 0 4 2 4 4v46c0 13 14 21 25 14l96 -67c10 -6 10 -21 0 -27l-96 -67c-11 -7 -25 0 -25 13v50c0 2 -2 4 -4 4c-88 -2 -158 -73 -158 -161c0 -89 72 -161 162 -161 c85 0 155 65 162 148c1 8 7 13 15 13z"/>
    <glyph glyph-name="ion-md-musical-note" unicode="" horiz-adv-x="256" d="M128 384h128v-85h-85v-214c0 -47 -39 -85 -86 -85s-85 38 -85 85s38 86 85 86c16 0 30 -5 43 -12v225z"/>
    <glyph glyph-name="ion-md-list-box" unicode="" horiz-adv-x="384" d="M344 384c22 0 40 -18 40 -40v-304c0 -22 -18 -40 -40 -40h-304c-22 0 -40 18 -40 40v304c0 22 18 40 40 40h304zM240 80v48h-160v-48h160zM304 168v48h-224v-48h224zM304 256v48h-224v-48h224z"/>
    <glyph glyph-name="ion-ios-mail" unicode="" d="M413 301c1 1 3 0 3 -2v-219c0 -18 -14 -32 -32 -32h-352c-18 0 -32 14 -32 32v219c0 2 2 3 3 2l108 -110c1 -1 1 -2 0 -3l-75 -80c-5 -5 -5 -13 0 -18c2 -2 6 -4 9 -4s7 2 9 4l75 80c1 1 2 1 3 0l18 -18c16 -16 36 -25 58 -25s43 8 58 24l18 19c1 1 2 1 3 0l75 -80 c2 -2 6 -4 9 -4s7 2 9 4c5 5 5 13 0 18l-75 80c-1 1 -1 2 0 3zM208 153c-15 0 -29 6 -39 16l-157 160c5 4 12 7 20 7h352c8 0 14 -3 20 -7l-157 -160c-10 -11 -24 -16 -39 -16z"/>
    <glyph glyph-name="ion-md-ice-cream" unicode="" horiz-adv-x="320" d="M32 192h256l-128 -224zM296 287c14 -4 24 -16 24 -31v0c0 -18 -14 -32 -32 -32h-256c-18 0 -32 14 -32 32v0c0 15 10 27 24 31c-2 6 -2 15 -2 21c0 42 34 76 76 76c8 0 10 -1 17 -3c-5 -12 -3 -22 -1 -31l3 -1c2 15 11 29 11 29c18 23 46 38 77 38c53 0 96 -43 96 -96 c0 -10 -2 -24 -5 -33z"/>
    <glyph glyph-name="ion-md-at" unicode="" d="M218 236c2 0 4 -1 6 -1s5 -1 7 -1l-7 -66c-3 -8 -7 -13 -11 -16s-8 -5 -14 -5s-10 3 -13 9s-4 15 -3 27c2 18 5 30 11 39s14 14 24 14zM208 400c115 0 208 -93 208 -208s-93 -208 -208 -208s-208 93 -208 208s93 208 208 208zM336 198c2 40 -8 72 -29 95s-51 35 -91 35 s-73 -13 -97 -37s-37 -57 -39 -99s9 -76 31 -100s53 -36 94 -36c10 0 21 1 31 3s19 6 26 10l-6 24c-7 -3 -15 -5 -24 -7s-18 -2 -26 -2c-31 0 -55 10 -71 29s-24 46 -22 79c2 34 12 61 30 81s42 30 72 30c31 0 55 -10 70 -28s22 -44 20 -77c-1 -16 -4 -30 -11 -40 s-16 -15 -27 -15c-3 0 -5 2 -7 5s-2 10 -2 18l8 83h-1h1c-9 5 -18 9 -25 11s-17 4 -29 4c-17 0 -33 -7 -45 -22s-19 -35 -22 -59c-2 -19 1 -34 9 -46s19 -17 34 -17c8 0 17 2 23 6s11 10 15 18c2 -8 7 -14 13 -18s13 -7 21 -7c25 0 44 7 56 23s19 35 20 56z"/>
    <glyph glyph-name="ion-ios-create" unicode="" horiz-adv-x="448" d="M372 362c3 3 9 3 12 0l26 -26c3 -3 3 -9 0 -12l-202 -202c-2 -2 -4 -2 -6 -2h-26c-4 0 -8 4 -8 8v26c0 2 0 4 2 6zM444 381c3 -3 4 -8 4 -12s-1 -8 -4 -11l-12 -12c-2 -2 -3 -2 -5 0l-22 22l-10 10c-2 2 -2 4 0 6l11 12c3 3 8 4 12 4s8 -1 11 -4v-1zM218 106l1 1l148 147 c2 2 6 2 6 -2v-209c0 -32 -26 -59 -58 -59h-256c-32 0 -59 27 -59 59v224c0 32 27 58 59 58h241c4 0 4 -5 2 -7l-147 -147l-1 -1c-3 -3 -5 -7 -5 -11v-1v-38v-3c0 -9 7 -16 16 -16h3h38h1c4 0 8 2 11 5z"/>
    <glyph glyph-name="ion-logo-chrome" unicode="" horiz-adv-x="448" d="M157 192c0 37 30 67 67 67s67 -30 67 -67s-30 -67 -67 -67s-67 30 -67 67zM445 230c2 -12 3 -25 3 -38c0 -106 -74 -195 -174 -218c-10 -2 -20 -4 -30 -5c-7 -1 -13 -1 -20 -1c-8 0 -17 0 -25 1v0v0v0v1l102 177c8 13 13 28 13 45c0 27 -13 50 -32 67h156 c3 -9 5 -19 7 -29v0c-2 10 -4 20 -7 29v0c3 -9 5 -19 7 -29v0zM224 103c10 0 20 2 29 5l-78 -135v0c-42 9 -79 30 -108 59c-42 41 -67 97 -67 160c0 31 6 61 18 88c7 16 16 31 26 45v0l103 -178c16 -27 43 -44 77 -44zM59 343v0v1c24 26 55 47 90 59c23 8 49 13 75 13 c73 0 138 -36 179 -90h1c10 -14 18 -29 25 -44v0c-7 15 -15 30 -25 44h-1c10 -14 19 -29 26 -44h-205c-44 0 -79 -32 -87 -72z"/>
    <glyph glyph-name="ion-md-volume-mute" unicode="" horiz-adv-x="192" d="M0 256h85l107 112v-352l-107 112h-85v128z"/>
    <glyph glyph-name="ion-md-skip-forward" unicode="" horiz-adv-x="384" d="M0 384l277 -192l-277 -192v384zM320 0v384h64v-384h-64z"/>
    <glyph glyph-name="ion-ios-infinite" unicode="" horiz-adv-x="464" d="M433 266c20 -20 31 -46 31 -74s-12 -54 -32 -74s-47 -30 -75 -30s-55 10 -75 30l-125 123c-14 13 -32 20 -51 20s-36 -7 -50 -20c-13 -13 -21 -31 -21 -49s8 -36 21 -49c14 -13 31 -20 50 -20s37 7 51 20l31 30c2 2 3 2 5 0l20 -19c2 -2 2 -4 0 -6l-31 -30 c-20 -20 -48 -30 -76 -30s-55 10 -75 30s-31 46 -31 74s11 54 31 74s47 30 75 30s56 -10 76 -30l125 -123c14 -13 32 -20 51 -20s36 7 50 20c13 13 20 31 20 49s-7 36 -20 49c-14 13 -31 20 -50 20s-37 -7 -51 -20l-31 -30c-2 -2 -3 -2 -5 0l-20 19c-2 2 -2 4 0 6l31 30 c20 20 48 30 76 30s55 -10 75 -30z"/>
    <glyph glyph-name="ion-logo-windows" unicode="" horiz-adv-x="448" d="M448 183v0v-215l-248 36v179h248zM184 183v0v-177l-184 27v150h184zM448 416v0v-217h-248v182zM184 378v0v-179h-184v153z"/>
    <glyph glyph-name="ion-md-microphone" unicode="" horiz-adv-x="256" d="M256 336h-56v-37h56v-43h-56v-37h56v-43h-56v-37h56v-42c0 -29 -25 -52 -55 -52h-30v-77h-86v77h-30c-30 0 -55 23 -55 52v42h152v37h-152v43h152v37h-152v43h152v37h-152v28c0 29 25 52 55 52h146c30 0 55 -23 55 -52v-28z"/>
    <glyph glyph-name="ion-ios-share-alt" unicode="" horiz-adv-x="384" d="M381 218c2 -2 3 -7 3 -10s0 -6 -3 -8l-143 -134c-5 -5 -14 -2 -14 5v65c0 2 -2 5 -4 5c-98 -1 -161 -44 -212 -108c-3 -3 -9 1 -8 5c21 109 80 214 220 236c2 0 4 2 4 4v66c0 5 6 8 10 8c2 0 4 0 6 -2z"/>
    <glyph glyph-name="ion-md-wine" unicode="" horiz-adv-x="384" d="M171 171l-171 170v43h384v-43l-171 -170v-131h107v-40h-256v40h107v131zM96 299h192l43 42h-278z"/>
    <glyph glyph-name="ion-md-skip-backward" unicode="" horiz-adv-x="384" d="M107 192l277 192v-384zM0 0v384h64v-384h-64z"/>
    <glyph glyph-name="ion-ios-bug" unicode="" horiz-adv-x="448" d="M343 321c-6 -16 -17 -31 -29 -43c-24 -24 -56 -37 -90 -37s-67 13 -91 37c-12 12 -22 27 -28 43c29 39 72 63 119 63s90 -24 119 -63zM90 298c22 -45 69 -80 122 -83v-215c-40 2 -73 23 -100 55l-5 -5c-5 -4 -6 -11 -4 -17c3 -8 1 -18 -5 -25c-9 -10 -24 -11 -34 -2 s-11 24 -2 34l3 3s2 1 2 1c4 13 13 26 27 37c-15 26 -26 56 -29 89c-2 0 -4 -1 -6 -1c-6 -1 -10 -4 -12 -9c-4 -10 -14 -17 -25 -16c-12 1 -21 10 -22 22c-1 14 10 26 24 26h3c4 2 8 5 12 6c7 2 14 4 25 4c1 23 6 45 13 65c-6 4 -11 7 -15 11c-5 4 -9 9 -12 14 c-2 3 -3 5 -6 7c-2 1 -4 3 -6 5c-7 7 -7 18 -3 27c6 12 21 17 33 10c11 -6 15 -20 10 -31c2 -4 4 -7 6 -9s6 -3 6 -3zM424 192c14 0 25 -12 24 -26c-1 -12 -10 -21 -22 -22c-11 -1 -20 6 -24 15c-2 6 -7 9 -13 10c-2 0 -4 1 -6 1c-3 -33 -14 -64 -29 -90 c14 -11 23 -23 27 -36c0 0 1 0 2 -1l3 -3c9 -10 8 -25 -2 -34s-25 -8 -34 2c-6 7 -8 16 -5 24c2 6 1 14 -4 18c-2 1 -3 2 -5 4c-27 -32 -60 -52 -100 -54v215c53 3 100 37 122 82c0 0 4 2 6 4c3 3 4 6 6 9c-5 11 -1 25 10 31c12 6 27 3 33 -9s3 -27 -9 -33v0 c-2 -1 -5 -4 -6 -6c-3 -5 -7 -11 -12 -15c-4 -4 -9 -7 -15 -11c7 -20 12 -42 13 -65c11 0 18 -2 25 -4c4 -1 8 -4 12 -6h3z"/>
    <glyph glyph-name="ion-ios-help-circle" unicode="" d="M208 400c115 0 208 -93 208 -208s-93 -208 -208 -208s-208 93 -208 208s93 208 208 208zM204 96c12 0 21 9 21 21s-9 20 -21 20s-22 -8 -22 -20s10 -21 22 -21zM244 193c18 11 28 24 28 44c0 30 -25 51 -63 51c-40 0 -64 -23 -65 -55h36c1 15 11 25 26 25s27 -10 27 -22 s-7 -19 -24 -29c-18 -11 -25 -23 -23 -44v-8h35v8c0 13 6 20 23 30z"/>
    <glyph glyph-name="ion-md-bulb" unicode="" horiz-adv-x="288" d="M80 20v18h128v-18c0 -11 -9 -20 -20 -20h-88c-11 0 -20 9 -20 20zM144 384c80 0 144 -60 144 -134c0 -46 -25 -87 -62 -111v-43c0 -11 -9 -19 -20 -19h-124c-11 0 -21 8 -21 19v43c-37 24 -61 65 -61 111c0 74 64 134 144 134z"/>
    <glyph glyph-name="ion-ios-document" unicode="" horiz-adv-x="304" d="M208 293c-10 0 -19 9 -19 19v72c0 4 3 8 7 8v0c8 0 15 -3 21 -8l76 -63c7 -6 11 -14 11 -23v0c0 -3 -2 -5 -5 -5h-91zM163 312c0 -25 20 -45 45 -45h96v-243c0 -18 -14 -32 -32 -32h-240c-18 0 -32 14 -32 32v336c0 18 14 32 32 32h131v-80z"/>
    <glyph glyph-name="ion-ios-search" unicode="" horiz-adv-x="384" d="M380 28c6 -7 6 -18 -1 -24c-3 -3 -7 -4 -11 -4s-9 2 -12 5l-106 107c-26 -21 -60 -34 -97 -34c-85 0 -153 69 -153 153s68 153 153 153s153 -69 153 -153c0 -36 -12 -69 -33 -95zM153 111c32 0 62 12 85 35s35 53 35 85s-12 62 -35 85s-53 35 -85 35s-62 -12 -85 -35 s-35 -53 -35 -85s12 -62 35 -85s53 -35 85 -35z"/>
    <glyph glyph-name="ion-logo-youtube" unicode="" horiz-adv-x="512" d="M509 299c2 -36 3 -71 3 -107s-1 -71 -3 -107c0 -45 -33 -81 -74 -81c-58 -3 -118 -4 -179 -4s-121 1 -179 4c-41 0 -74 36 -74 81c-2 36 -3 71 -3 107s2 71 4 107c0 45 32 81 73 81c55 3 112 4 170 4h9h9c58 0 115 -1 170 -4c41 0 74 -36 74 -81zM207 94l145 98l-145 99 v-197z"/>
    <glyph glyph-name="ion-md-aperture" unicode="" horiz-adv-x="448" d="M224 416c124 0 224 -100 224 -224s-100 -224 -224 -224s-224 100 -224 224s100 224 224 224zM360 56c36 36 56 85 56 136s-20 100 -56 136s-85 56 -136 56s-100 -20 -136 -56s-56 -85 -56 -136s20 -100 56 -136s85 -56 136 -56s100 20 136 56zM168 342l56 -86h-147 c17 40 50 71 91 86zM381 160h-102l72 129c21 -27 33 -60 33 -97c0 -11 -1 -22 -3 -32zM328 314l-49 -90l-78 126c8 1 15 2 23 2c40 0 76 -14 104 -38zM67 224h102l-72 -129c-21 27 -33 60 -33 97c0 11 1 22 3 32zM280 42l-56 86h147c-17 -40 -50 -71 -91 -86zM120 70l49 90 l78 -126c-8 -1 -15 -2 -23 -2c-40 0 -76 14 -104 38z"/>
    <glyph glyph-name="ion-md-list" unicode="" horiz-adv-x="352" d="M0 120v48h256v-48h-256zM0 216v48h320v-48h-320zM0 312v48h352v-48h-352zM0 24v48h288v-48h-288z"/>
    <glyph glyph-name="ion-ios-power" unicode="" horiz-adv-x="384" d="M316 336c43 -36 68 -89 68 -145c0 -105 -86 -191 -192 -191s-192 86 -192 191c0 56 25 109 68 145c3 3 8 5 12 5c5 0 9 -3 13 -7c3 -4 5 -8 5 -13s-3 -10 -7 -13c-35 -29 -55 -72 -55 -117c0 -85 70 -155 156 -155s156 70 156 155c0 45 -20 87 -55 117c-4 3 -7 8 -7 13 s2 9 5 13s9 7 14 7c4 0 8 -2 11 -5zM193 174c-10 0 -19 8 -19 18v174c0 10 9 18 19 18s18 -8 18 -18v-174c0 -10 -8 -18 -18 -18z"/>
    <glyph glyph-name="ion-md-grid" unicode="" horiz-adv-x="384" d="M346 384c21 0 38 -17 38 -38v-308c0 -21 -17 -38 -38 -38h-308c-21 0 -38 17 -38 38v308c0 21 17 38 38 38h308zM115 38v77h-77v-77h77zM115 154v76h-77v-76h77zM115 269v77h-77v-77h77zM230 38v77h-76v-77h76zM230 154v76h-76v-76h76zM230 269v77h-76v-77h76zM346 38v77 h-77v-77h77zM346 154v76h-77v-76h77zM346 269v77h-77v-77h77z"/>
    <glyph glyph-name="ion-ios-glasses" unicode="" horiz-adv-x="446" d="M432 207c8 0 14 -7 14 -15s-6 -15 -14 -15h-7c-3 -21 -13 -40 -28 -55c-17 -17 -40 -26 -64 -26c-51 0 -93 43 -93 96v0c0 6 -7 15 -17 15s-17 -9 -17 -15v0c0 -53 -42 -96 -93 -96c-24 0 -47 9 -64 26c-15 15 -25 34 -28 55h-7c-8 0 -14 7 -14 15s6 15 14 15h7 c3 21 13 40 28 55c17 16 40 26 64 26c20 0 40 -6 56 -19c14 -11 24 -25 30 -42c7 5 16 7 24 7s17 -2 24 -7c6 17 16 31 30 42c16 13 36 19 56 19c24 0 47 -9 64 -26c15 -15 25 -34 28 -55h7z"/>
    <glyph glyph-name="ion-md-hand" unicode="" horiz-adv-x="414" d="M401 174c15 -15 18 -36 3 -51c0 0 -96 -103 -126 -121v0c-28 -21 -65 -34 -100 -34c-55 0 -101 36 -117 85v0v1c0 1 -1 2 -1 3l-58 189c-5 15 2 32 17 37s30 -3 35 -18l34 -88c1 -4 2 -2 2 1l-22 161c-3 15 7 30 22 33s30 -8 33 -23l25 -138c0 -2 2 -2 2 0v177 c0 15 13 28 28 28s28 -13 28 -28l8 -175c0 -5 3 -4 4 -1l23 135c2 15 16 27 31 25s27 -17 25 -32l-21 -172c-1 -12 -3 -30 2 -36c8 -9 20 -9 31 2l42 42c15 15 35 13 50 -2z"/>
    <glyph glyph-name="ion-ios-bluetooth" unicode="" horiz-adv-x="256" d="M250 115c7 -6 7 -16 1 -23l-116 -120c-2 -2 -6 -4 -9 -4v0c-6 0 -11 5 -11 11v170l-85 -74c-7 -6 -19 -5 -25 2v0c-6 7 -5 18 2 24l108 91l-109 92c-7 6 -8 17 -2 24v0c6 7 18 7 25 1l86 -73v169c0 6 5 11 11 11v0c3 0 7 -2 9 -4l116 -121c6 -7 6 -17 -1 -23l-88 -76z M151 347c-1 1 -3 1 -3 -1v-119c0 -2 2 -3 3 -2l63 53c1 1 1 2 0 3zM148 38c0 -2 2 -2 3 -1l63 65c1 1 1 2 0 3l-63 53c-1 1 -3 0 -3 -2v-118z"/>
    <glyph glyph-name="ion-ios-time" unicode="" d="M208 400c115 0 208 -93 208 -208s-93 -208 -208 -208s-208 93 -208 208s93 208 208 208zM222 174v146c0 8 -6 14 -14 14s-14 -6 -14 -14v-132h-82c-8 0 -14 -6 -14 -14s6 -14 14 -14h96c8 0 14 6 14 14z"/>
    <glyph glyph-name="ion-ios-trending-up" unicode="" horiz-adv-x="448" d="M433 320c8 0 15 -7 15 -15v-118c0 -8 -7 -15 -15 -15s-15 7 -15 15v82l-150 -152c-3 -3 -6 -4 -10 -4s-8 1 -11 4l-86 84l-135 -133c-3 -3 -7 -4 -11 -4s-8 1 -11 4s-4 6 -4 10c0 6 2 9 4 11l146 143c3 3 7 5 11 5s8 -2 11 -5l86 -84l138 142h-84c-8 0 -15 7 -15 15 s7 15 15 15h121z"/>
    <glyph glyph-name="ion-md-contact" unicode="" d="M208 400c114 0 208 -94 208 -208s-94 -208 -208 -208s-208 94 -208 208s94 208 208 208zM208 338c-34 0 -62 -29 -62 -63s28 -62 62 -62s62 28 62 62s-28 63 -62 63zM208 37c52 0 98 27 125 67c-1 42 -83 64 -125 64s-124 -22 -125 -64c27 -40 73 -67 125 -67z"/>
    <glyph glyph-name="ion-md-close-circle" unicode="" d="M208 400c115 0 208 -93 208 -208s-93 -208 -208 -208s-208 93 -208 208s93 208 208 208zM312 117l-75 75l75 75l-29 29l-75 -75l-75 75l-29 -29l75 -75l-75 -75l29 -29l75 75l75 -75z"/>
    <glyph glyph-name="ion-logo-sass" unicode="" horiz-adv-x="512" d="M512 119v-8c-1 -9 -7 -17 -15 -22s-12 -4 -13 -3s1 3 4 5c13 8 17 20 10 33c-5 10 -15 16 -26 20c-24 8 -48 7 -72 0c4 -12 7 -23 -2 -34c-10 -12 -23 -19 -39 -22c-7 -2 -14 2 -15 9c-3 19 17 36 30 47c-7 11 -11 24 -14 37c-15 -17 -31 -40 -26 -61 c3 -14 -1 -27 -14 -36s-30 -14 -46 -11c-4 1 -6 5 -5 8c2 14 25 32 35 43c2 2 3 4 1 7c-6 12 -10 23 -14 36c-13 -29 -30 -80 -57 -98c-9 -6 -17 -4 -21 5c-3 8 -2 20 -1 29c-6 -13 -11 -27 -20 -38c-7 -8 -24 -7 -30 1c-16 21 -13 50 -5 73l-29 -15c7 -16 8 -32 4 -49 c-5 -19 -17 -35 -35 -46c-19 -12 -64 -24 -77 4c-7 16 -4 30 6 44c17 24 48 37 74 50c-32 23 -80 42 -96 80c-15 35 17 68 43 89c59 48 166 95 244 59c15 -7 36 -24 31 -52c-4 -24 -13 -39 -28 -54c-32 -32 -152 -77 -176 -15c-1 1 -1 4 1 4c2 -1 20 -15 43 -16 c17 -1 36 3 52 8c33 11 71 33 80 67c4 13 -2 28 -15 34c-49 24 -116 -4 -159 -26c-33 -17 -84 -45 -82 -87c1 -37 56 -60 81 -82c15 7 42 15 52 27c11 13 26 25 44 26c8 0 14 -3 16 -10c2 -6 1 -11 0 -19c5 4 11 4 15 -1c12 -14 -22 -50 -10 -66c14 14 21 42 30 59 c4 8 17 51 26 53c7 2 18 4 25 0c2 -1 3 -3 2 -5c-7 -19 -7 -33 3 -52c14 20 29 43 34 67c1 2 3 3 5 4c7 2 18 3 25 0c3 -1 3 -2 2 -5c-7 -22 -6 -38 6 -58c31 11 69 15 97 -5c-3 2 -7 5 0 0c5 -4 3 -2 0 0c12 -8 19 -18 21 -32zM113 94v0c1 7 -1 13 -3 20 c-24 -8 -66 -35 -64 -62c1 -10 8 -13 17 -12s19 7 27 13c14 11 22 24 23 41zM216 166c1 3 -2 5 -5 4c-29 -8 -43 -57 -33 -81c1 -3 4 -3 6 -1c17 16 28 56 32 78zM286 84c8 -3 27 17 26 27c-8 -9 -18 -18 -26 -27zM367 102c11 6 16 19 12 30c-8 -6 -21 -19 -20 -31 c0 -2 6 0 8 1z"/>
    <glyph glyph-name="ion-ios-apps" unicode="" horiz-adv-x="384" d="M371 310c18 -8 18 -21 0 -29l-148 -67c-17 -8 -45 -8 -62 0l-148 67c-18 8 -18 21 0 29l150 68c16 7 43 7 59 0zM161 73c17 -8 45 -8 62 0l100 45c4 2 9 2 13 0l35 -16c18 -8 18 -21 0 -29l-148 -67c-17 -8 -45 -8 -62 0l-148 67c-18 8 -18 21 0 29l35 16c4 2 10 2 14 0z M371 206c18 -8 18 -21 0 -29l-148 -67c-17 -8 -45 -8 -62 0l-148 67c-18 8 -18 21 0 29l32 15c4 2 9 2 13 0l108 -49c15 -5 37 -5 52 0l108 49c4 2 9 2 13 0z"/>
    <glyph glyph-name="ion-ios-outlet" unicode="" d="M311 370c3 0 6 0 8 -2c58 -37 97 -102 97 -176s-39 -138 -97 -176c-2 -2 -5 -2 -8 -2h-206c-3 0 -6 0 -8 2c-58 38 -97 102 -97 176s39 139 97 176c2 2 5 2 8 2h206zM145 177c2 0 4 2 4 4v111c0 2 -2 4 -4 4h-22c-2 0 -4 -2 -4 -4v-111c0 -2 2 -4 4 -4h22zM234 58 c2 0 4 2 4 4v41c0 16 -14 30 -30 30s-30 -15 -30 -31v-40c0 -2 2 -4 4 -4h52zM293 192c2 0 4 2 4 4v81c0 2 -2 4 -4 4h-22c-2 0 -4 -2 -4 -4v-81c0 -2 2 -4 4 -4h22z"/>
    <glyph glyph-name="ion-ios-tablet-landscape" unicode="" horiz-adv-x="448" d="M7 345v0c4 4 11 7 17 7h400c6 0 13 -3 17 -7v0c4 -4 7 -11 7 -17v-272c0 -6 -3 -13 -7 -17v0c-4 -4 -11 -7 -17 -7h-400c-6 0 -13 3 -17 7v0c-4 4 -7 11 -7 17v272c0 6 3 13 7 17zM17 192c0 -4 3 -7 7 -7s7 3 7 7s-3 7 -7 7s-7 -3 -7 -7zM438 192c0 8 -6 14 -14 14 s-14 -6 -14 -14s6 -14 14 -14s14 6 14 14zM400 336h-352v-288h352v288z"/>
    <glyph glyph-name="ion-md-arrow-dropdown-circle" unicode="" d="M208 400c115 0 208 -93 208 -208s-93 -208 -208 -208s-208 93 -208 208s93 208 208 208zM208 128l96 96h-192z"/>
    <glyph glyph-name="ion-logo-flickr" unicode="" horiz-adv-x="384" d="M288 384c53 0 96 -43 96 -96v-192c0 -53 -43 -96 -96 -96h-192c-53 0 -96 43 -96 96v192c0 53 43 96 96 96h192zM120 144c26 0 48 22 48 48s-22 48 -48 48s-48 -22 -48 -48s22 -48 48 -48zM264 144c26 0 48 22 48 48s-22 48 -48 48s-48 -22 -48 -48s22 -48 48 -48z"/>
    <glyph glyph-name="ion-md-tv" unicode="" horiz-adv-x="448" d="M407 372c22 0 41 -18 41 -40v-240c0 -22 -19 -40 -41 -40h-102v-40h-163v40h-101c-22 0 -41 18 -41 40v240c0 22 19 40 41 40h366zM407 92v0v240h-366v-240h366z"/>
    <glyph glyph-name="ion-ios-bowtie" unicode="" horiz-adv-x="448" d="M259 234c10 -17 19 -53 17 -85c-1 -17 -5 -22 -5 -22s-12 -7 -36 -7h-11c-35 3 -40 15 -40 15s4 12 8 43s0 58 0 58s7 5 19 7c8 2 17 3 23 3v0c11 0 20 -4 25 -12zM174 239c0 0 3 -16 2 -32v-10c0 -3 -1 -6 -1 -10c0 -5 0 -10 -1 -15l-2 -10c-4 -21 -10 -34 -10 -34 s-77 -80 -110 -80c-28 0 -52 68 -52 144s26 144 52 144c35 0 100 -57 122 -97zM396 336c26 0 52 -68 52 -144s-24 -144 -52 -144c-37 0 -98 69 -106 79c0 0 4 5 5 22v9v8c0 11 -2 23 -4 33l-3 11c-3 10 -7 18 -10 24c0 1 -2 4 -2 4l1 1c22 40 83 97 119 97z"/>
    <glyph glyph-name="ion-ios-barcode" unicode="" d="M74 60c4 0 7 -2 10 -5s4 -6 4 -10c0 -8 -7 -13 -15 -13h-56c-10 0 -17 6 -17 16v288c0 10 8 16 18 16h54c4 0 9 -1 12 -4s4 -6 4 -10c0 -8 -7 -14 -15 -14h-40c-2 0 -4 -2 -4 -4v-256c0 -2 2 -4 4 -4h41zM399 352c10 0 17 -6 17 -16v-288c0 -10 -7 -16 -17 -16h-57 c-4 0 -7 1 -10 4s-4 6 -4 10c0 8 7 14 15 14h40c2 0 4 2 4 4v256c0 2 -2 4 -4 4h-41c-5 0 -9 3 -12 8c0 1 -1 1 -1 2c-3 10 4 18 14 18h56zM74 272c8 0 14 -6 14 -14v-132c0 -8 -6 -14 -14 -14s-14 6 -14 14v132c0 8 6 14 14 14zM342 112c-8 0 -14 6 -14 14v132 c0 8 6 14 14 14s14 -6 14 -14v-132c0 -8 -6 -14 -14 -14zM278 304c8 0 14 -6 14 -14v-196c0 -8 -6 -14 -14 -14s-14 6 -14 14v196c0 8 6 14 14 14zM138 304c8 0 14 -6 14 -14v-196c0 -8 -6 -14 -14 -14s-14 6 -14 14v196c0 8 6 14 14 14zM208 288c8 0 14 -6 14 -14v-164 c0 -8 -6 -14 -14 -14s-14 6 -14 14v164c0 8 6 14 14 14z"/>
    <glyph glyph-name="ion-ios-shirt" unicode="" horiz-adv-x="413" d="M413 266l-62 -64c-2 -3 -7 -1 -7 3v45c0 5 -5 10 -11 9c-4 -1 -7 -5 -7 -9v-61v-181c0 -4 -4 -8 -8 -8h-222c-4 0 -8 4 -8 8v181v61c0 5 -5 10 -11 9c-4 -1 -7 -5 -7 -9v-45c0 -4 -5 -6 -7 -3l-62 64c-1 2 -1 4 0 6c12 12 61 63 89 83c20 15 41 29 63 29s22 -8 54 -8 s32 8 54 8s42 -14 62 -29c28 -20 77 -71 89 -83c1 -2 2 -4 1 -6zM207 305c30 0 54 13 54 36c0 30 -24 11 -54 11s-54 19 -54 -11c0 -23 24 -36 54 -36z"/>
    <glyph glyph-name="ion-md-home" unicode="" d="M160 0h-98v192h-62l208 192l208 -192h-62v-192h-98v128h-96v-128z"/>
    <glyph glyph-name="ion-ios-cafe" unicode="" d="M322 44c8 0 14 -7 14 -15s-7 -13 -15 -13h-259c-8 0 -14 7 -14 15s6 13 14 13h260zM351 330v0c39 -14 65 -49 65 -88c0 -25 -11 -49 -30 -67s-45 -27 -72 -27h-6v0c-16 -28 -36 -50 -58 -64c-19 -12 -38 -20 -44 -20h-60c-9 0 -46 12 -78 49c-18 21 -33 47 -44 79 c-14 38 -22 84 -24 136c0 11 4 22 12 30c7 7 17 10 27 10h274c10 0 19 -3 26 -10c8 -8 12 -17 12 -28zM322 176v0c37 3 66 32 66 66c0 13 -5 26 -13 37c-7 9 -16 16 -26 21v0c-4 -47 -13 -90 -27 -124z"/>
    <glyph glyph-name="ion-md-navigate" unicode="" horiz-adv-x="320" d="M160 384l160 -369l-15 -15l-145 64l-145 -64l-15 15z"/>
    <glyph glyph-name="ion-md-arrow-round-down" unicode="" horiz-adv-x="332" d="M9 163c-12 12 -12 31 0 43s34 12 46 0l79 -83v214c0 17 14 31 32 31s32 -14 32 -31v-214l79 83c12 12 34 12 46 0s12 -31 0 -43l-134 -138c-6 -6 -14 -9 -23 -9v0c-9 0 -17 3 -23 9z"/>
    <glyph glyph-name="ion-md-color-fill" unicode="" horiz-adv-x="448" d="M104 370l30 30l257 -256l-54 -11l-153 -149l-184 178l142 141zM288 162l-102 103l-103 -103h205zM391 144c0 0 57 -61 57 -92s-26 -56 -57 -56s-56 25 -56 56s56 92 56 92z"/>
    <glyph glyph-name="ion-ios-star-half" unicode="" horiz-adv-x="448" d="M431 256c9 0 17 -7 17 -16c0 -4 -2 -8 -5 -11l-3 -2l-120 -86l46 -135c2 -7 1 -14 -5 -18c-3 -2 -6 -4 -9 -4s-7 2 -10 4l-118 84l-118 -84c-3 -2 -7 -4 -10 -4s-6 2 -9 4c-6 4 -7 12 -5 18l46 135l-121 85c-5 4 -7 7 -7 11v3c0 9 7 16 16 16v0h148l45 133 c2 6 8 11 15 11s13 -5 15 -11l45 -133h147zM384 221c3 2 1 7 -3 7h-97v0c-12 0 -23 8 -27 19l-29 88v0c-1 2 -4 2 -4 0v-210c0 -12 6 -23 16 -30v0l78 -56c3 -2 7 1 6 5l-30 88c-4 12 0 25 10 32z"/>
    <glyph glyph-name="ion-ios-person" unicode="" horiz-adv-x="384" d="M384 10c1 -5 -3 -10 -8 -10h-368c-5 0 -9 5 -8 10c7 32 49 47 63 52c16 6 38 7 52 10c8 2 20 6 24 11s1 49 1 49s-7 12 -11 22s-8 38 -8 38s-8 0 -11 14c-3 16 -9 22 -8 34s7 11 7 11s-6 16 -7 51c-1 41 31 82 90 82c58 0 91 -41 90 -82c-1 -35 -7 -51 -7 -51s6 1 7 -11 s-5 -18 -8 -34c-3 -14 -11 -14 -11 -14s-4 -28 -8 -38s-12 -22 -12 -22s-2 -44 2 -49s16 -9 24 -11c14 -3 36 -4 52 -10c14 -5 56 -20 63 -52z"/>
    <glyph glyph-name="ion-md-settings" unicode="" d="M366 171l47 -34c3 -3 4 -10 2 -14l-43 -71c-2 -4 -7 -7 -12 -5l-54 21c-12 -8 -23 -16 -36 -21l-8 -55c-1 -4 -6 -8 -11 -8h-85c-5 0 -10 3 -11 8l-8 55c-13 5 -25 13 -36 21l-54 -21c-4 -2 -10 1 -12 5l-43 71c-3 5 -2 11 2 14l45 34c0 7 -1 14 -1 21s1 14 1 21l-46 34 c-3 3 -4 10 -2 14l43 71c2 4 7 7 12 5l54 -21c12 8 23 16 36 21l8 55c1 4 6 8 11 8h85c5 0 10 -4 11 -8l7 -55c13 -5 25 -13 36 -21l53 21c4 2 11 -1 13 -5l43 -71c3 -5 2 -11 -2 -14l-45 -34c0 -7 1 -14 1 -21s0 -15 -1 -21zM207 119c41 0 75 32 75 73s-34 73 -75 73 s-74 -32 -74 -73s33 -73 74 -73z"/>
    <glyph glyph-name="ion-ios-lock" unicode="" horiz-adv-x="320" d="M280 256c22 0 40 -18 40 -40v-192c0 -22 -18 -40 -40 -40h-240c-22 0 -40 18 -40 40v192c0 22 18 40 40 40h24v48c0 53 44 97 97 96s95 -44 95 -97v-47h24zM174 131c11 5 18 16 18 29c0 18 -15 33 -34 32c-16 -1 -29 -13 -30 -29c-1 -14 6 -26 18 -32v-69 c0 -8 7 -14 15 -14s13 6 13 14v69zM228 256v48c0 18 -7 35 -20 48s-30 20 -48 20s-35 -7 -48 -20s-20 -30 -20 -48v-48h136z"/>
    <glyph glyph-name="ion-ios-egg" unicode="" horiz-adv-x="320" d="M160 416v0c64 0 160 -133 160 -257s-64 -191 -160 -191s-160 67 -160 191s96 257 160 257z"/>
    <glyph glyph-name="ion-ios-repeat" unicode="" horiz-adv-x="384" d="M273 290c4 -4 6 -9 6 -15s-2 -11 -6 -15l-36 -36c-3 -3 -6 -4 -10 -4s-7 1 -10 4s-4 7 -4 11c0 3 2 7 4 9l16 16h-155c-13 0 -25 -5 -35 -15s-15 -22 -15 -35v-16c0 -8 -6 -14 -14 -14v0c-8 0 -14 6 -14 14v16c0 21 8 40 23 55s34 23 55 23h157l-16 16c-2 2 -4 6 -4 9 c0 5 2 10 7 13c1 1 2 2 3 2c5 1 10 0 14 -4zM370 204c8 0 14 -6 14 -14v-16c0 -43 -35 -78 -78 -78h-157l16 -16c2 -2 4 -6 4 -9c0 -5 -2 -10 -7 -13c-1 -1 -2 -1 -3 -1c-5 -1 -10 -1 -14 3l-34 34c-4 4 -6 9 -6 15s2 12 6 16l36 35c3 3 6 4 10 4s7 -1 10 -4s4 -7 4 -11 c0 -3 -2 -7 -4 -9l-16 -16h155c13 0 25 5 35 15s15 22 15 35v16c0 8 6 14 14 14v0z"/>
    <glyph glyph-name="ion-ios-color-palette" unicode="" horiz-adv-x="384" d="M366 100c12 -11 14 -35 0 -48c-39 -34 -94 -52 -149 -52h-1c-55 0 -111 18 -153 55c-84 74 -84 195 0 269c45 40 102 60 158 60c48 0 94 -15 128 -45c46 -41 46 -108 0 -149l-30 -27c-14 -13 -14 -31 0 -44c7 -6 11 -8 23 -10c8 -1 17 -3 24 -9zM56 232 c0 -18 14 -32 32 -32s32 14 32 32s-14 32 -32 32s-32 -14 -32 -32zM96 106c18 0 32 14 32 32s-14 32 -32 32s-32 -14 -32 -32s14 -32 32 -32zM160 267c18 0 32 14 32 32s-14 32 -32 32s-32 -14 -32 -32s14 -32 32 -32zM232 48c26 0 48 22 48 48s-22 48 -48 48 s-48 -22 -48 -48s22 -48 48 -48zM256 256c18 0 32 14 32 32s-14 32 -32 32s-32 -14 -32 -32s14 -32 32 -32z"/>
    <glyph glyph-name="ion-ios-alert" unicode="" d="M208 400c115 0 208 -93 208 -208s-93 -208 -208 -208s-208 93 -208 208s93 208 208 208zM225 290c0 10 -7 18 -17 18v0c-10 0 -17 -8 -17 -18l3 -115c0 -8 6 -15 14 -15v0c8 0 14 7 14 15zM208 94c11 0 19 8 19 18s-8 19 -19 19s-19 -9 -19 -19s8 -18 19 -18z"/>
    <glyph glyph-name="ion-ios-bus" unicode="" horiz-adv-x="320" d="M14 31c11 -12 24 -9 58 -9c0 -10 1 -22 -3 -22h-55c-4 0 -5 7 -6 29c0 3 4 4 6 2zM306 31c2 2 6 1 6 -2c-1 -22 -2 -29 -6 -29h-55s-3 12 -3 22c34 0 47 -3 58 9zM288 384c18 0 32 -14 32 -32v0v-276c0 -22 -18 -40 -40 -40h-240c-22 0 -40 18 -40 40v276v0 c0 18 14 32 32 32h8h240h8zM66 72c12 1 21 10 22 22c1 15 -11 27 -26 26c-12 -1 -21 -10 -22 -22c-1 -15 11 -27 26 -26zM142 150c2 0 4 2 4 4v140c0 2 -2 4 -4 4h-98c-9 0 -16 -7 -16 -16v-116c0 -9 7 -16 16 -16h98zM258 72c12 1 21 10 22 22c1 15 -11 27 -26 26 c-12 -1 -21 -10 -22 -22c-1 -15 11 -27 26 -26zM292 166v116c0 9 -7 16 -16 16h-98c-2 0 -4 -2 -4 -4v-140c0 -2 2 -4 4 -4h98c9 0 16 7 16 16zM277 328c9 0 15 6 15 14s-6 14 -15 14h-234c-9 0 -15 -6 -15 -14s6 -14 15 -14h234z"/>
    <glyph glyph-name="ion-md-beer" unicode="" horiz-adv-x="448" d="M384 308c47 0 64 -33 64 -68v-96c0 -35 -14 -68 -64 -68h-16v-33v-11c0 -35 -29 -64 -64 -64h-176c-35 0 -64 29 -64 64v173v2c-26 0 -48 22 -48 48v55c-10 11 -16 26 -16 42c0 35 29 64 64 64c18 0 34 -8 46 -20c10 12 26 20 43 20c14 0 27 -6 37 -14c12 9 26 14 42 14 c17 0 34 -6 46 -16c11 10 26 16 42 16c35 0 64 -29 64 -64c0 -15 -7 -29 -16 -38v-6h16zM320 256v49v15h-20c-3 -8 -7 -16 -13 -23c-13 -16 -33 -25 -55 -25c-26 0 -48 13 -61 33c-6 -2 -12 -3 -18 -3c-12 0 -23 4 -32 10c-2 1 -3 3 -5 4c-1 -2 -2 -3 -3 -5l-1 -1v-54h208z M64 320c9 0 18 4 24 11c2 2 3 4 4 6c0 0 6 10 12 11s20 6 30 -5c4 -5 11 -9 19 -9c3 0 5 1 7 2c3 1 7 2 9 4v0c3 2 6 4 10 4c7 0 12 -4 14 -10c0 0 1 -1 1 -2c1 -3 1 -5 3 -8c7 -12 20 -20 35 -20c13 0 26 6 33 16c5 7 7 15 7 24s9 8 9 8h55c6 0 13 -3 15 -9c1 3 1 6 1 9 c0 18 -14 32 -32 32c-9 0 -17 -4 -23 -10c-2 -2 -6 -5 -16 -6h-8c-6 1 -11 3 -13 5c-7 7 -17 11 -28 11c-9 0 -18 -4 -25 -9c-2 -2 -4 -5 -6 -7c0 -1 -1 -1 -2 -2c-3 -3 -7 -5 -11 -5c-5 0 -8 3 -11 6c-1 2 -2 3 -3 5s-3 4 -5 6c-4 4 -10 6 -16 6c-10 0 -18 -9 -25 -16 c-7 -8 -27 -8 -34 0s-18 16 -30 16c-18 0 -32 -14 -32 -32c0 -2 1 -5 1 -7c2 -9 7 -17 15 -21v-63c0 -9 7 -16 16 -16v75zM400 144v96c0 18 -6 24 -24 24h-8v-144h8c18 0 24 6 24 24z"/>
    <glyph glyph-name="ion-md-snow" unicode="" horiz-adv-x="412" d="M411 150l-57 -16l58 -33l-24 -42l-57 33l16 -57l-31 -8l-24 88l-62 36v-71l64 -64l-22 -23l-42 42v-67h-48v66l-42 -42l-22 22l64 65v71l-61 -35l-23 -88l-31 8l15 57l-58 -33l-24 41l57 33l-57 15l8 31l88 -23l63 36l-63 36l-88 -24l-8 31l57 15l-57 33l24 42l58 -34 l-15 57l31 9l23 -88l61 -35v71l-64 65l22 22l42 -42v66h48v-67l42 42l22 -23l-64 -64v-71l62 36l24 88l31 -9l-16 -57l57 33l24 -42l-58 -33l57 -15l-8 -31l-88 24l-60 -35l60 -35l88 23z"/>
    <glyph glyph-name="ion-md-download" unicode="" horiz-adv-x="320" d="M320 248l-160 -158l-160 158h91v136h138v-136h91zM0 45h320v-45h-320v45z"/>
    <glyph glyph-name="ion-md-star-outline" unicode="" horiz-adv-x="404" d="M404 238l-110 -96l33 -142l-125 75l-125 -75l33 142l-110 96l145 12l57 134l57 -134zM219 103l60 -36l-16 68l-5 19l15 12l53 46l-70 6l-19 2l-8 18l-27 64l-27 -64l-8 -18l-19 -2l-70 -6l53 -46l15 -12l-5 -19l-16 -68l60 36l17 10z"/>
    <glyph glyph-name="ion-ios-microphone" unicode="" horiz-adv-x="288" d="M203 244c-7 0 -12 -5 -12 -12s5 -12 12 -12h73c7 0 12 -5 12 -12s-5 -12 -12 -12h-73c-7 0 -12 -5 -12 -12s5 -12 12 -12h77c4 0 8 -4 8 -8c0 -14 -3 -27 -8 -39c-1 -3 -4 -5 -7 -5h-258c-3 0 -6 2 -7 5c-5 12 -8 25 -8 39c0 4 4 8 8 8h77c7 0 12 5 12 12s-5 12 -12 12 h-73c-7 0 -12 5 -12 12s5 12 12 12h73c7 0 12 5 12 12s-5 12 -12 12h-73c-7 0 -12 5 -12 12s5 12 12 12h73c7 0 12 5 12 12s-5 12 -12 12h-77c-4 0 -8 4 -8 8c2 47 31 88 73 106c5 2 11 -1 11 -7v-36c0 -7 5 -12 12 -12s12 5 12 12v41c0 7 5 12 12 12v0c7 0 12 -5 12 -12 v-57c0 -7 5 -12 12 -12s12 5 12 12v57c0 7 5 12 12 12v0c7 0 12 -5 12 -12v-41c0 -7 5 -12 12 -12s12 5 12 12v36c0 6 6 9 11 7c42 -18 71 -58 73 -106c0 -4 -4 -8 -8 -8h-77c-7 0 -12 -5 -12 -12s5 -12 12 -12h73c7 0 12 -5 12 -12s-5 -12 -12 -12h-73zM30 89c-2 3 0 7 3 7 h222c3 0 6 -4 4 -7c-19 -22 -46 -36 -76 -40c-4 0 -7 -4 -7 -8v-41c0 -18 -14 -32 -32 -32v0c-18 0 -32 14 -32 32v41c0 4 -3 8 -7 8c-30 4 -56 18 -75 40z"/>
    <glyph glyph-name="ion-md-git-network" unicode="" horiz-adv-x="384" d="M384 352c0 -24 -13 -44 -32 -55v-93l-128 -64v-53c19 -11 32 -31 32 -55c0 -35 -29 -64 -64 -64s-64 29 -64 64c0 24 13 44 32 55v53l-128 64v93c-19 11 -32 31 -32 55c0 35 29 64 64 64s64 -29 64 -64c0 -24 -13 -44 -32 -55v-53l96 -48l96 48v53c-19 11 -32 31 -32 55 c0 35 29 64 64 64s64 -29 64 -64zM64 392c-22 0 -40 -18 -40 -40s18 -40 40 -40s40 18 40 40s-18 40 -40 40zM192 -8c22 0 40 18 40 40s-18 40 -40 40s-40 -18 -40 -40s18 -40 40 -40zM320 312c22 0 40 18 40 40s-18 40 -40 40s-40 -18 -40 -40s18 -40 40 -40z"/>
    <glyph glyph-name="ion-md-code-working" unicode="" horiz-adv-x="448" d="M158 94l-30 -30l-128 128l128 128l30 -30l-98 -98zM290 94l98 98l-98 98l30 30l128 -128l-128 -128zM124 172v40h40v-40h-40zM324 212v-40h-40v40h40zM204 172v40h40v-40h-40z"/>
    <glyph glyph-name="ion-md-phone-portrait" unicode="" horiz-adv-x="288" d="M247 416c23 0 41 -19 41 -41v-366c0 -22 -18 -41 -41 -41h-206c-23 0 -41 19 -41 41v366c0 22 18 41 41 41h206zM252 48v288h-216v-288h216z"/>
    <glyph glyph-name="ion-ios-videocam" unicode="" horiz-adv-x="448" d="M419 294h20c5 0 9 -3 9 -8v-188c0 -5 -4 -9 -9 -9h-20c-3 0 -7 1 -10 3l-86 55c-2 2 -4 4 -4 7v76c0 3 2 5 4 7l86 55c3 2 7 2 10 2zM242 64h-190c-28 0 -52 23 -52 51v154c0 28 23 51 51 51h190c28 0 52 -23 52 -51v-153c0 -28 -23 -52 -51 -52z"/>
    <glyph glyph-name="ion-logo-no-smoking" unicode="" horiz-adv-x="448" d="M328 144v48h16v-48h-16zM80 144v48h82l48 -48h-130zM332 388c69 -38 116 -112 116 -196c0 -124 -100 -224 -224 -224c-24 0 -47 4 -68 11c-2 1 -3 1 -5 2c-12 4 -24 9 -35 15h-1c-69 38 -115 112 -115 196c0 124 100 224 224 224c24 0 47 -4 68 -11c2 -1 3 -1 5 -2 c12 -4 24 -9 35 -15v0zM224 22c37 0 72 12 100 32l-238 238c-20 -28 -32 -63 -32 -100c0 -65 36 -121 90 -150c6 -3 13 -7 19 -9c2 -1 3 -1 5 -2c9 -3 19 -5 29 -7c9 -2 18 -2 27 -2zM362 93c20 28 32 62 32 99c0 66 -37 123 -91 151c-6 3 -12 6 -18 8c-2 1 -3 1 -5 2 c-9 3 -19 5 -29 7c-9 2 -18 2 -27 2c-37 0 -71 -12 -99 -32zM320 192v-34l-34 34h34zM352 144v48h16v-48h-16zM328 235c16 -7 16 -23 16 -30v-1h-16v1c0 8 -1 13 -7 16c-4 2 -13 4 -39 4h-3c-13 0 -24 0 -33 13c-5 8 -5 19 -2 29c-4 1 -8 1 -12 3c-17 7 -26 20 -26 38 c0 33 27 44 39 44v-16c-1 0 -23 -2 -23 -28c0 -11 5 -19 16 -23c9 -4 18 -3 18 -3c3 0 6 -2 7 -5s2 -6 0 -8c-5 -7 -7 -18 -4 -22c4 -6 7 -6 20 -6h3c24 0 37 -2 46 -6zM368 204v0h-16c0 28 -4 37 -7 42c-6 10 -14 14 -25 14h-30c-3 0 -5 2 -6 4s-1 6 0 8c0 0 8 18 6 32 c-1 8 -6 17 -27 17v16c24 0 40 -11 43 -30c2 -11 0 -23 -3 -31h17c16 0 30 -8 39 -22c6 -10 9 -24 9 -50z"/>
    <glyph glyph-name="ion-md-add" unicode="" horiz-adv-x="320" d="M320 171h-139v-139h-42v139h-139v42h139v139h42v-139h139v-42z"/>
    <glyph glyph-name="ion-md-arrow-dropup" unicode="" horiz-adv-x="256" d="M0 128l128 128l128 -128h-256z"/>
    <glyph glyph-name="ion-ios-checkmark-circle" unicode="" d="M208 400c115 0 208 -93 208 -208s-93 -208 -208 -208s-208 93 -208 208s93 208 208 208zM314 250c2 2 2 3 0 5l-17 18c-1 1 -2 2 -3 2v0c-1 0 -2 -1 -3 -2l-122 -123l-44 45c-1 1 -2 1 -3 1s-2 0 -3 -1l-18 -18c-2 -2 -2 -4 0 -6l56 -56c4 -4 8 -5 12 -5c5 0 10 3 12 5v0 z"/>
    <glyph glyph-name="ion-ios-link" unicode="" d="M232 107c15 1 23 -17 13 -27l-66 -65c-20 -20 -46 -31 -74 -31s-54 11 -74 31s-31 46 -31 74s10 55 30 75l69 68c8 8 18 15 28 20c6 3 12 5 19 7c1 0 3 1 4 1c5 1 11 3 16 3h7c4 0 7 -1 11 -1h6c22 -4 42 -14 58 -30c12 -12 20 -25 24 -41c2 -8 -2 -17 -10 -19v0h-1 c-8 -2 -16 2 -19 10c-4 10 -9 19 -17 27c-12 12 -29 20 -47 21h-4h-11c-5 -1 -10 -2 -15 -4s-9 -4 -14 -7c-4 -3 -8 -6 -12 -10l-68 -68c-14 -14 -22 -32 -22 -52s8 -37 22 -51s31 -22 51 -22s38 8 52 22l64 64c3 2 6 5 10 5h1zM385 369c20 -20 31 -46 31 -74 s-10 -55 -30 -75l-69 -68c-8 -8 -18 -15 -28 -20c-6 -3 -12 -5 -19 -7c-6 -2 -14 -3 -20 -3c-3 0 -4 -1 -7 -1c-4 0 -7 1 -11 1c-24 2 -47 13 -64 30v0v0c-12 12 -20 24 -24 38c-3 9 3 18 12 20c8 2 16 -2 19 -10c4 -10 9 -18 16 -25c12 -12 29 -20 47 -21h4h11 c5 1 10 2 15 4s9 5 14 8c4 3 8 5 12 9l68 68c14 14 22 32 22 52s-8 37 -22 51s-31 22 -51 22s-37 -8 -51 -22l-64 -63c-3 -3 -8 -5 -13 -5c-14 1 -20 18 -10 28l64 63c20 20 46 31 74 31s54 -11 74 -31z"/>
    <glyph glyph-name="ion-md-checkbox-outline" unicode="" horiz-adv-x="384" d="M105 233l66 -66l183 183l30 -30l-213 -213l-96 96zM341 43v170h43v-170c0 -23 -20 -43 -43 -43h-298c-23 0 -43 20 -43 43v298c0 23 20 43 43 43h213v-43h-213v-298h298z"/>
    <glyph glyph-name="ion-md-cloud-upload" unicode="" horiz-adv-x="480" d="M387 231c52 -3 93 -46 93 -99c0 -55 -45 -100 -100 -100h-260c-66 0 -120 54 -120 120c0 62 47 113 107 119c25 48 75 81 133 81c73 0 133 -52 147 -121zM272 172h68l-100 100l-100 -100h68v-76h64v76z"/>
    <glyph glyph-name="ion-logo-instagram" unicode="" horiz-adv-x="384" d="M272 352h-160c-21 0 -41 -9 -56 -24s-24 -35 -24 -56v-160c0 -21 9 -41 24 -56s35 -24 56 -24h160c21 0 41 9 56 24s24 35 24 56v160c0 21 -9 41 -24 56s-35 24 -56 24zM272 384v0c62 0 112 -50 112 -112v-160c0 -62 -50 -112 -112 -112h-160c-62 0 -112 50 -112 112v160 c0 62 50 112 112 112h160zM296 272c-13 0 -24 11 -24 24s11 24 24 24s24 -11 24 -24s-11 -24 -24 -24zM192 256c-35 0 -64 -29 -64 -64s29 -64 64 -64s64 29 64 64s-29 64 -64 64zM192 288v0c53 0 96 -43 96 -96s-43 -96 -96 -96s-96 43 -96 96s43 96 96 96z"/>
    <glyph glyph-name="ion-md-volume-high" unicode="" horiz-adv-x="384" d="M0 256h85l107 112v-352l-107 112h-85v128zM288 192c0 -38 -21 -73 -53 -88v177c32 -16 53 -51 53 -89zM235 384c85 -20 149 -99 149 -192s-64 -172 -149 -192v45c62 19 106 78 106 147s-44 128 -106 147v45z"/>
    <glyph glyph-name="ion-md-help-buoy" unicode="" d="M208 400c115 0 208 -93 208 -208s-93 -208 -208 -208s-208 93 -208 208s93 208 208 208zM269 44c19 8 37 20 52 35s27 33 35 52l-40 12c-6 -13 -14 -25 -24 -35s-22 -18 -35 -24zM147 340c-19 -8 -37 -20 -52 -35s-27 -33 -35 -52l40 -12c6 13 14 25 24 35s22 18 35 24z M208 256c-35 0 -64 -29 -64 -64s29 -64 64 -64s64 29 64 64s-29 64 -64 64zM321 305c-15 15 -33 27 -52 35l-12 -40c13 -6 25 -14 35 -24s18 -22 24 -35l40 12c-8 19 -20 37 -35 52zM95 79c15 -15 33 -27 52 -35l12 40c-13 6 -25 14 -35 24s-18 22 -24 35l-40 -12 c8 -19 20 -37 35 -52z"/>
    <glyph glyph-name="ion-md-restaurant" unicode="" horiz-adv-x="415" d="M116 168l-91 89c-34 33 -34 86 0 119l153 -148zM264 206l-33 -31l150 -145l-30 -30l-150 146l-150 -146l-30 30s163 159 211 207c-15 32 -4 77 31 111c41 40 101 49 132 17c33 -31 24 -89 -17 -129c-34 -34 -80 -45 -114 -30z"/>
    <glyph glyph-name="ion-md-body" unicode="" horiz-adv-x="384" d="M192 400c22 0 40 -18 40 -40s-18 -40 -40 -40s-40 18 -40 40s18 40 40 40zM384 256h-128v-272h-43v144h-42v-144h-43v272h-128v43h384v-43z"/>
    <glyph glyph-name="ion-md-crop" unicode="" d="M304 135v153h-153v38h153c21 0 38 -17 38 -38v-153h-38zM112 102h304v-38h-74v-80h-38v80h-192c-21 0 -38 17 -38 38v186h-74v38h74v74h38v-298z"/>
    <glyph glyph-name="ion-md-chatbubbles" unicode="" d="M85 80h219v-7c0 -17 -13 -31 -30 -31h-216l-58 -58v274c0 17 13 30 30 30h10v-163c0 -20 25 -45 45 -45zM381 400c19 0 35 -16 35 -35v-314l-76 53h-238c-19 0 -35 16 -35 35v226c0 19 16 35 35 35h279z"/>
    <glyph glyph-name="ion-logo-rss" unicode="" horiz-adv-x="384" d="M56 112c31 0 56 -25 56 -56s-25 -56 -56 -56s-56 25 -56 56s25 56 56 56zM0 256c140 0 256 -116 256 -256h-80c0 48 -14 94 -48 128s-80 48 -128 48v80zM0 384c212 0 384 -172 384 -384h-80c0 171 -133 304 -304 304v80z"/>
    <glyph glyph-name="ion-md-outlet" unicode="" horiz-adv-x="448" d="M338 416c61 0 110 -51 110 -113v-222c0 -62 -49 -113 -110 -113h-228c-61 0 -110 51 -110 113v222c0 62 49 113 110 113h228zM143 197v102c0 11 -9 21 -20 21h-23c-11 0 -19 -9 -20 -20v-2v-101v-1c0 -11 9 -20 20 -20h23c11 0 20 9 20 20v1zM265 50v31 c0 23 -18 42 -41 42s-41 -19 -41 -42v-29c0 -12 9 -20 20 -20h42c11 0 20 7 20 18zM368 197v102c0 11 -9 21 -20 21h-24c-11 0 -19 -9 -20 -20v-2v-101v-1c0 -11 9 -20 20 -20h24c11 0 20 9 20 20v1z"/>
    <glyph glyph-name="ion-ios-information-circle-outline" unicode="" d="M187 276c0 11 10 20 21 20s21 -9 21 -20s-10 -20 -21 -20s-21 9 -21 20zM189 240h38v-144h-38v144zM208 372c-48 0 -93 -19 -127 -53s-53 -79 -53 -127s19 -93 53 -127s79 -53 127 -53s93 19 127 53s53 79 53 127s-19 93 -53 127s-79 53 -127 53zM208 400v0 c115 0 208 -93 208 -208s-93 -208 -208 -208s-208 93 -208 208s93 208 208 208z"/>
    <glyph glyph-name="ion-md-flash-off" unicode="" horiz-adv-x="408" d="M408 12l-24 -24l-140 140l-72 -144v192h-64v88l-108 107l24 25zM300 240l-24 -48l-168 168v40h192l-64 -160h64z"/>
    <glyph glyph-name="ion-md-videocam" unicode="" horiz-adv-x="448" d="M352 228l96 98v-268l-96 98v-86c0 -13 -11 -24 -25 -24h-302c-14 0 -25 11 -25 24v244c0 13 11 24 25 24h302c14 0 25 -11 25 -24v-86z"/>
    <glyph glyph-name="ion-ios-square-outline" unicode="" horiz-adv-x="320" d="M292 352c15 0 28 -13 28 -28v-264c0 -15 -13 -28 -28 -28h-264c-15 0 -28 13 -28 28v264c0 15 13 28 28 28h264zM292 68v248c0 4 -4 8 -8 8h-248c-4 0 -8 -4 -8 -8v-248c0 -4 4 -8 8 -8h248c4 0 8 4 8 8z"/>
    <glyph glyph-name="ion-ios-information-circle" unicode="" d="M208 400c115 0 208 -93 208 -208s-93 -208 -208 -208s-208 93 -208 208s93 208 208 208zM227 96v144h-38v-144h38zM208 256c11 0 21 9 21 20s-10 20 -21 20s-21 -9 -21 -20s10 -20 21 -20z"/>
    <glyph glyph-name="ion-ios-heart-dislike" unicode="" horiz-adv-x="448" d="M392 21c6 -6 6 -14 0 -20c-2 -2 -5 -2 -7 -3c-5 -1 -9 -1 -13 3l-368 362c-6 6 -6 14 0 20s14 6 20 0zM32 279c0 10 1 20 4 30l270 -265c-36 -31 -66 -52 -66 -52s-101 72 -161 154c-32 43 -47 96 -47 133zM402 146c-16 -22 -33 -42 -52 -61l-282 277c20 18 47 30 76 30 v0v0h1c40 0 75 -21 95 -52c20 31 55 52 95 52h1v0v0c62 -1 112 -51 112 -113c0 -37 -14 -90 -46 -133z"/>
    <glyph glyph-name="ion-md-search" unicode="" horiz-adv-x="384" d="M274 143l110 -110l-33 -33l-109 110v17l-7 6c-25 -21 -58 -34 -93 -34c-79 0 -142 63 -142 142s63 143 141 143c79 0 142 -64 142 -143c0 -36 -13 -68 -34 -93l7 -5h18zM142 143c55 0 99 43 99 98s-44 99 -99 99s-98 -44 -98 -99s43 -98 98 -98z"/>
    <glyph glyph-name="ion-ios-download" unicode="" horiz-adv-x="320" d="M280 304c22 0 40 -18 40 -40v-240c0 -22 -18 -40 -40 -40h-240c-22 0 -40 18 -40 40v240c0 22 18 40 40 40h107v-180l-48 47c-5 5 -13 5 -18 0s-5 -13 0 -18l70 -69v0c1 -1 2 -2 4 -3s3 -1 5 -1c3 0 7 2 9 4l70 69c5 5 5 13 0 18s-13 5 -18 0l-48 -47v180h107zM173 387 v-83h-26v83c0 7 6 13 13 13s13 -6 13 -13z"/>
    <glyph glyph-name="ion-ios-boat" unicode="" horiz-adv-x="400" d="M296 26c0 0 27 -24 63 -36c2 -1 1 -4 -1 -4c-23 2 -40 6 -62 12c-22 -10 -67 -14 -96 -14s-73 5 -96 14c-21 -6 -39 -9 -62 -12c-2 0 -3 3 -1 4c36 12 63 36 63 36c26 -9 66 -15 96 -15s70 6 96 15zM390 185c6 -3 10 -9 10 -16c0 -2 0 -5 -1 -7l-55 -136 c-28 0 -57 22 -57 22c-18 -9 -53 -17 -79 -19h-8h-8c-26 2 -61 10 -79 19c0 0 -29 -22 -57 -22l-55 136c-1 2 -1 5 -1 7c0 7 4 13 10 16v0l187 85c2 1 4 1 6 0l187 -85v0zM156 160c7 0 12 10 12 22s-5 22 -12 22s-12 -10 -12 -22s5 -22 12 -22zM244 160c7 0 12 10 12 22 s-5 22 -12 22s-12 -10 -12 -22s5 -22 12 -22zM336 321l18 -97c1 -3 -2 -5 -5 -4l-26 11c-1 0 -2 2 -2 3l-16 86c-3 11 -7 16 -16 16h-177c-9 0 -15 -5 -17 -16l-16 -86c0 -1 -1 -3 -2 -3l-25 -11c-3 -1 -7 1 -6 4l18 97c5 26 17 47 40 47h34l2 8c4 14 16 24 31 24h57 c15 0 27 -10 31 -24l2 -8h35c22 0 34 -20 40 -47v0z"/>
    <glyph glyph-name="ion-ios-volume-off" unicode="" horiz-adv-x="384" d="M326 -16c-5 0 -9 3 -12 7l-228 388c-4 7 -2 15 5 19s15 2 19 -5l228 -388c4 -7 2 -15 -5 -19c-2 -1 -5 -2 -7 -2zM69 248l51 41l40 -69v-124c0 -6 -3 -11 -9 -14c-2 -1 -5 -2 -7 -2c-4 0 -7 2 -10 4l-65 52h-53c-9 0 -16 7 -16 16v80c0 9 7 16 16 16h53zM384 192v0 c0 -53 -19 -103 -53 -143l-13 22c27 34 42 77 42 121v0v0c0 53 -20 102 -58 139c-5 5 -5 12 0 17s11 5 16 0c42 -42 66 -97 66 -156v0zM321 192c0 -31 -8 -60 -23 -85l-15 24c9 19 14 39 14 61v0v0c0 37 -14 72 -40 98c-5 5 -5 12 0 17s12 5 17 0c30 -31 47 -71 47 -115v0v0 zM254 192c0 -3 -1 -7 -1 -10l-48 82c0 1 1 1 2 2c5 5 12 4 17 -1c19 -20 30 -45 30 -73v0v0z"/>
    <glyph glyph-name="ion-logo-reddit" unicode="" horiz-adv-x="449" d="M259 160c0 18 14 31 32 31s32 -13 32 -31s-14 -32 -32 -32s-32 14 -32 32zM127 160c0 18 14 31 32 31s32 -13 32 -31s-14 -32 -32 -32s-32 14 -32 32zM449 197c0 -20 -11 -37 -27 -45c1 -5 1 -9 1 -14c0 -76 -88 -138 -198 -138s-199 61 -199 137c0 5 0 10 1 15 c-16 8 -27 25 -27 45c0 28 23 50 50 50c13 0 24 -5 33 -13c33 23 79 39 129 41h7l29 98l86 -17c7 16 22 28 41 28c25 0 44 -20 44 -45s-19 -45 -44 -45c-24 0 -45 19 -45 44l-69 14l-24 -77c50 -2 96 -18 129 -41c9 8 21 13 34 13c27 0 49 -22 49 -50zM375 366 c-15 0 -27 -12 -27 -27s12 -27 27 -27s27 12 27 27s-12 27 -27 27zM18 197c0 -11 6 -21 14 -27c7 19 20 38 37 53c-5 4 -12 6 -19 6c-18 0 -32 -14 -32 -32zM355 55c32 22 50 52 50 83v9c-1 6 -3 12 -5 18c-6 16 -15 30 -30 43c-4 4 -10 8 -15 12v0c-35 24 -80 37 -130 37 s-96 -13 -131 -37v0c-5 -4 -11 -8 -15 -12c-15 -13 -24 -27 -30 -43c-2 -6 -4 -12 -5 -18v-9c0 -31 18 -61 50 -83c35 -24 81 -37 131 -37s95 13 130 37zM417 170c8 6 14 16 14 27c0 18 -13 32 -31 32c-7 0 -15 -2 -20 -6c17 -15 30 -34 37 -53zM289 90l13 -12 c-1 -1 -29 -30 -77 -30s-77 29 -78 30l13 12s24 -24 65 -24c40 0 64 24 64 24z"/>
    <glyph glyph-name="ion-ios-flashlight" unicode="" horiz-adv-x="170" d="M146 416c18 0 24 -14 24 -32h-170c0 18 6 32 24 32h122zM25 300c-16 18 -25 33 -25 68h170c0 -33 -10 -50 -25 -68c-8 -9 -12 -19 -12 -31v-266c0 -22 -18 -35 -40 -35h-16c-22 0 -40 13 -40 35v266c0 12 -4 22 -12 31zM57 210v-36c0 -16 13 -28 28 -28s28 12 28 28v36 c0 16 -13 28 -28 28s-28 -12 -28 -28zM65 175c0 11 9 20 20 20s20 -9 20 -20s-9 -20 -20 -20s-20 9 -20 20z"/>
    <glyph glyph-name="ion-md-qr-scanner" unicode="" d="M48 324v-68h-48v68c0 34 27 60 61 60h67v-48h-68c-7 0 -12 -5 -12 -12zM356 384c33 0 60 -26 60 -60v-68h-48v68c0 7 -6 12 -13 12h-67v48h68zM368 61v67h48v-67c0 -34 -26 -61 -60 -61h-68v49h68c7 0 12 5 12 12zM60 49h68v-49h-67c-34 0 -61 27 -61 61v67h48v-67 c0 -7 5 -12 12 -12z"/>
    <glyph glyph-name="ion-ios-navigate" unicode="" d="M208 400c115 0 208 -93 208 -208s-93 -208 -208 -208s-208 93 -208 208s93 208 208 208zM208 64l96 224l-224 -96h128v-128z"/>
    <glyph glyph-name="ion-md-power" unicode="" d="M231 400v-231h-46v231h46zM343 350c45 -38 73 -95 73 -158c0 -115 -93 -208 -208 -208s-208 93 -208 208c0 63 28 120 73 158l33 -33c-36 -30 -60 -74 -60 -125c0 -89 72 -162 162 -162s162 73 162 162c0 51 -24 96 -60 125z"/>
    <glyph glyph-name="ion-ios-stopwatch" unicode="" horiz-adv-x="384" d="M352 304l-26 26c-3 3 -3 8 0 11l12 11c3 3 8 3 11 0l25 -25c3 -3 3 -8 0 -11l-11 -12c-3 -3 -8 -3 -11 0zM21 304l-11 12c-3 3 -3 8 0 11l25 25c3 3 8 3 11 0l12 -11c3 -3 3 -8 0 -11l-26 -26c-3 -3 -8 -3 -11 0zM216 366c95 -12 168 -92 168 -190 c0 -106 -86 -192 -192 -192s-192 86 -192 192c0 98 73 178 168 190v18c0 9 7 16 16 16h16c9 0 16 -7 16 -16v-18zM206 147c11 5 18 16 18 29s-7 24 -18 29v99c0 8 -6 14 -14 14s-14 -6 -14 -14v-99c-11 -5 -18 -16 -18 -29s7 -24 18 -29v-19c0 -8 6 -14 14 -14s14 6 14 14 v19z"/>
    <glyph glyph-name="ion-md-key" unicode="" d="M201 224h215v-64h-43v-64h-69v64h-103c-14 -40 -53 -72 -98 -72c-57 0 -103 47 -103 104s44 104 101 104c45 0 86 -32 100 -72zM104 158c19 0 34 15 34 34s-15 34 -34 34s-35 -15 -35 -34s16 -34 35 -34z"/>
    <glyph glyph-name="ion-ios-arrow-down" unicode="" horiz-adv-x="336" d="M168 154l127 127c9 9 25 9 34 0s9 -25 0 -34l-144 -144c-9 -9 -24 -10 -33 -1l-145 145c-5 5 -7 11 -7 17s2 12 7 17c9 9 25 9 34 0z"/>
    <glyph glyph-name="ion-logo-linkedin" unicode="" horiz-adv-x="384" d="M353 384c18 0 31 -13 31 -30v-321c0 -17 -13 -33 -31 -33h-320c-18 0 -33 16 -33 33v321c0 17 15 30 33 30h320zM119 64v171h-55v-171h55zM93 261c18 0 30 13 30 29c0 17 -11 30 -29 30s-30 -13 -30 -30c0 -16 11 -29 29 -29v0zM320 64v100c0 51 -27 75 -63 75 c-29 0 -42 -17 -50 -28v24h-55v-171h55v97c0 5 0 10 2 14c4 10 13 20 28 20c20 0 28 -15 28 -37v-94h55z"/>
    <glyph glyph-name="ion-ios-arrow-dropdown" unicode="" d="M100 237c8 8 19 8 27 0l81 -81l81 79c8 8 19 8 27 0c4 -4 6 -8 6 -13s-2 -10 -6 -14l-94 -94c-8 -7 -20 -6 -27 1l-95 95c-8 8 -8 19 0 27zM0 192c0 115 93 208 208 208s208 -93 208 -208s-93 -208 -208 -208s-208 93 -208 208zM332 316c-33 33 -77 52 -124 52 s-91 -19 -124 -52s-52 -77 -52 -124s19 -91 52 -124s77 -52 124 -52s91 19 124 52s52 77 52 124s-19 91 -52 124z"/>
    <glyph glyph-name="ion-ios-settings" unicode="" horiz-adv-x="384" d="M352 192c0 -21 14 -39 32 -46c-5 -20 -13 -40 -24 -57c-6 3 -13 4 -20 4c-13 0 -25 -5 -35 -15c-15 -15 -18 -36 -10 -54c-17 -11 -37 -19 -57 -24c-7 18 -25 32 -46 32s-39 -14 -46 -32c-20 5 -40 13 -57 24c8 18 5 39 -10 54c-10 10 -22 15 -35 15c-7 0 -14 -1 -20 -4 c-11 17 -19 37 -24 57c18 7 32 25 32 46s-14 39 -32 46c5 20 13 39 24 57c6 -3 13 -4 20 -4c13 0 25 4 35 14c15 15 18 37 10 55c17 11 37 19 57 24c7 -18 25 -32 46 -32s39 14 46 32c20 -5 40 -13 57 -24c-8 -18 -5 -40 10 -55c10 -10 22 -14 35 -14c7 0 14 1 20 4 c11 -17 19 -37 24 -57c-19 -7 -32 -25 -32 -46zM193 112c44 0 80 36 80 80s-36 80 -80 80s-80 -36 -80 -80s36 -80 80 -80z"/>
    <glyph glyph-name="ion-md-sad" unicode="" d="M208 160c45 0 83 -26 102 -64h-204c19 38 57 64 102 64zM208 400c114 0 208 -94 208 -208s-93 -208 -208 -208s-208 94 -208 208s93 208 208 208zM208 26c92 0 166 74 166 166s-74 166 -166 166s-166 -74 -166 -166s74 -166 166 -166zM281 213c-18 0 -31 13 -31 31 s13 31 31 31s31 -13 31 -31s-13 -31 -31 -31zM135 213c-18 0 -31 13 -31 31s13 31 31 31s31 -13 31 -31s-13 -31 -31 -31z"/>
    <glyph glyph-name="ion-ios-tennisball" unicode="" d="M202 -16c-110 3 -199 93 -202 203c8 1 15 1 23 1c48 0 94 -18 128 -52s53 -80 53 -128c0 -8 -1 -16 -2 -24zM182 374c0 -115 92 -207 207 -207c9 0 18 0 26 1c-11 -96 -89 -173 -186 -183c1 8 1 15 1 23c0 115 -92 207 -207 207c-7 0 -15 0 -22 -1c10 96 87 172 182 184 c-1 -8 -1 -16 -1 -24zM261 246c-34 34 -53 80 -53 128c0 9 1 18 2 26c112 -2 204 -93 206 -205c-9 -1 -18 -2 -27 -2c-48 0 -94 19 -128 53zM184 399v0v0v0z"/>
    <glyph glyph-name="ion-ios-card" unicode="" horiz-adv-x="448" d="M448 320v-48h-448v48c0 18 14 32 32 32h384c18 0 32 -14 32 -32zM0 64v160h448v-160c0 -18 -14 -32 -32 -32h-384c-18 0 -32 14 -32 32zM142 112c-8 0 -14 -6 -14 -14v0c0 -8 6 -14 14 -14h164c8 0 14 6 14 14v0c0 8 -6 14 -14 14h-164zM70 112c-8 0 -14 -6 -14 -14v0 c0 -8 6 -14 14 -14h12c8 0 14 6 14 14v0c0 8 -6 14 -14 14h-12z"/>
    <glyph glyph-name="ion-md-create" unicode="" horiz-adv-x="384" d="M0 80l236 236l80 -80l-236 -236h-80v80zM378 298l-40 -40l-80 80l40 40c9 9 20 9 29 0l51 -51c9 -9 9 -20 0 -29z"/>
    <glyph glyph-name="ion-logo-vk" unicode="" horiz-adv-x="448" d="M395 149c41 -38 53 -58 53 -70c0 -6 -3 -9 -6 -11c-5 -4 -22 -4 -34 -4h-28c-9 0 -18 -1 -26 2c-6 2 -12 5 -18 9c-12 9 -21 21 -31 32c-5 6 -10 11 -17 15c-8 4 -14 2 -19 -4c-6 -6 -7 -18 -7 -26s1 -18 -6 -24c-2 -1 -4 -2 -6 -2c-4 -1 -17 -2 -33 -2s-68 8 -105 49 c-36 39 -62 79 -82 120c-11 23 -30 55 -30 66c0 5 5 9 10 9h66c9 0 15 -4 19 -11s10 -26 23 -52c13 -25 25 -45 41 -50c2 0 8 -1 10 3c4 7 5 18 6 25c4 29 3 46 -5 67c-2 5 -7 7 -11 9c-7 3 -13 2 -11 5c4 5 12 10 19 12s21 4 40 4s40 -1 48 -7c1 -1 4 -4 5 -6 c5 -11 2 -29 1 -55c-1 -46 3 -51 5 -54s5 -3 6 -3c2 0 4 0 6 1c8 4 26 26 40 52c13 25 18 36 21 44s8 16 14 16h74c16 0 20 -3 20 -14c0 -17 -18 -39 -32 -58c-34 -45 -40 -53 -40 -59c0 -3 0 -5 1 -8c3 -8 10 -12 19 -20z"/>
    <glyph glyph-name="ion-ios-wifi" unicode="" horiz-adv-x="448" d="M224 352c82 0 163 -33 222 -88c3 -3 3 -9 0 -12l-27 -28c-3 -3 -8 -3 -11 0c-23 22 -51 39 -80 51c-33 14 -68 21 -104 21s-71 -7 -104 -21c-29 -12 -56 -29 -79 -51c-3 -3 -9 -3 -12 0l-27 28c-3 3 -2 9 1 12c58 55 139 88 221 88zM81 170c-3 3 -3 9 0 12 c38 34 88 55 143 55s104 -21 142 -55c4 -3 4 -9 1 -12l-29 -28c-3 -3 -8 -3 -11 0c-28 25 -65 39 -103 39s-75 -14 -103 -39c-3 -3 -8 -3 -11 0zM224 124c23 0 44 -10 59 -26c3 -3 3 -8 0 -11l-53 -53c-3 -3 -9 -3 -12 0l-53 53c-3 3 -3 8 0 11c15 16 36 26 59 26z"/>
    <glyph glyph-name="ion-logo-vimeo" unicode="" horiz-adv-x="448" d="M445 334c7 -33 1 -66 -13 -97s-31 -59 -51 -87c-26 -36 -52 -71 -85 -101c-19 -18 -41 -35 -66 -44c-31 -11 -52 -5 -71 22c-14 19 -22 40 -28 63c-12 45 -25 90 -38 134c-4 12 -9 22 -15 33c-3 5 -8 10 -12 14c-5 4 -11 3 -17 0c-10 -6 -28 -18 -28 -18l-21 27 c26 24 82 71 82 71c11 9 33 25 48 27c21 3 38 -4 50 -22c11 -17 15 -37 18 -57c7 -41 11 -82 23 -122c3 -10 8 -20 13 -29c7 -11 15 -13 25 -5c4 3 7 6 10 10c20 24 37 52 48 81c3 9 3 17 3 27c0 13 -10 25 -25 26s-24 -1 -39 -7c6 24 24 62 54 84c29 21 71 24 94 16 s36 -23 41 -46z"/>
    <glyph glyph-name="ion-ios-checkmark-circle-outline" unicode="" d="M315 255c2 -2 1 -4 0 -6l-134 -134v0c-2 -2 -7 -5 -12 -5c-4 0 -7 1 -11 5l-56 56c-2 2 -2 4 0 6l17 18c1 1 2 1 3 1s2 0 3 -1l44 -45l122 123c1 1 2 1 3 1v0c1 0 2 0 3 -1zM208 372c-48 0 -93 -19 -127 -53s-53 -79 -53 -127s19 -93 53 -127s79 -53 127 -53 s93 19 127 53s53 79 53 127s-19 93 -53 127s-79 53 -127 53zM208 400v0c115 0 208 -93 208 -208s-93 -208 -208 -208s-208 93 -208 208s93 208 208 208z"/>
    <glyph glyph-name="ion-md-battery-full" unicode="" horiz-adv-x="224" d="M194 371c16 0 30 -14 30 -30v-343c0 -16 -13 -30 -30 -30h-164c-16 0 -30 13 -30 30v343c0 16 14 30 30 30h37v45h90v-45h37z"/>
    <glyph glyph-name="ion-md-color-wand" unicode="" horiz-adv-x="384" d="M137 291l247 -254l-36 -37l-248 253zM117 316v68h37v-68h-37zM117 118v68h37v-68h-37zM206 235v37h69v-37h-69zM242 332l-48 -48l-25 26l47 48zM105 310l-26 -26l-47 48l26 26zM32 170l47 48l26 -26l-47 -48zM0 235v37h65v-37h-65z"/>
    <glyph glyph-name="ion-md-analytics" unicode="" horiz-adv-x="448" d="M347 270c4 -1 9 -2 13 -2c11 0 22 4 30 10l58 -39v-212c0 -24 -19 -43 -43 -43h-362c-24 0 -43 19 -43 43v57l61 57c7 -4 15 -6 24 -6c13 0 24 5 33 13l58 -33c0 -3 -1 -6 -1 -9c0 -26 22 -48 48 -48s48 22 48 48c0 12 -4 22 -11 30zM85 231c-26 0 -48 -22 -48 -48 c0 -6 1 -12 3 -17l-40 -38v229c0 24 19 43 43 43h362c24 0 43 -19 43 -43v-80l-41 28c1 4 1 7 1 11c0 26 -22 48 -48 48s-48 -22 -48 -48c0 -10 3 -20 9 -28l-87 -135c-3 1 -7 1 -11 1c-12 0 -22 -4 -30 -11l-60 34v6c0 26 -22 48 -48 48z"/>
    <glyph glyph-name="ion-ios-compass" unicode="" d="M232 168c1 -1 1 -3 0 -4l-98 -49c-2 -1 -4 1 -3 3l49 98c1 1 3 1 4 0zM208 400c115 0 208 -93 208 -208s-93 -208 -208 -208s-208 93 -208 208s93 208 208 208zM249 151v0l81 160c1 2 -1 4 -3 3l-159 -81h-1l-81 -160c-1 -2 1 -4 3 -3z"/>
    <glyph glyph-name="ion-logo-dribbble" unicode="" horiz-adv-x="384" d="M192 384c106 0 192 -86 192 -192s-86 -192 -192 -192s-192 86 -192 192s86 192 192 192zM314 296c-17 -25 -47 -47 -85 -64c5 -10 9 -20 13 -31c33 3 75 4 110 2c-2 35 -16 68 -38 93zM192 352c-14 0 -26 -2 -39 -5c23 -23 43 -53 62 -87c34 14 62 33 79 55 c-28 23 -63 37 -102 37zM120 334c-41 -21 -71 -58 -83 -103h25c44 0 85 6 121 17c-19 34 -40 63 -63 86zM32 200v-8c0 -40 15 -78 40 -106c24 45 67 83 122 106c4 2 8 3 14 4c-3 8 -6 16 -10 24c-40 -13 -88 -20 -138 -21c-9 0 -19 1 -28 1zM192 32c20 0 39 3 57 10 c-3 25 -8 53 -15 79c-4 17 -10 33 -16 49c-7 -2 -13 -4 -17 -6c-48 -22 -86 -56 -107 -98c27 -21 61 -34 98 -34zM278 58c40 26 68 67 73 116c-30 2 -68 3 -99 0c4 -12 9 -25 12 -38c7 -27 11 -52 14 -78z"/>
    <glyph glyph-name="ion-ios-fitness" unicode="" horiz-adv-x="448" d="M320 168h-192c-4 0 -8 4 -8 8v32c0 4 4 8 8 8h192c4 0 8 -4 8 -8v-32c0 -4 -4 -8 -8 -8zM346 86v212c0 12 10 22 22 22v0c12 0 22 -10 22 -22v-212c0 -12 -10 -22 -22 -22v0c-12 0 -22 10 -22 22zM428 256c11 0 20 -9 20 -20v-88c0 -11 -9 -20 -20 -20h-12 c-4 0 -8 4 -8 8v112c0 4 4 8 8 8h12zM102 86c0 -12 -10 -22 -22 -22v0c-12 0 -22 10 -22 22v212c0 12 10 22 22 22v0c12 0 22 -10 22 -22v-212zM32 256c4 0 8 -4 8 -8v-112c0 -4 -4 -8 -8 -8h-12c-11 0 -20 9 -20 20v88c0 11 9 20 20 20h12z"/>
    <glyph glyph-name="ion-ios-aperture" unicode="" d="M202 77h179c-25 -37 -61 -66 -103 -81l-22 22l-55 55c-1 1 -1 4 1 4zM119 113c0 2 2 3 3 2l127 -127c-13 -3 -27 -4 -41 -4c-32 0 -62 7 -89 20v109zM208 400c32 0 63 -7 90 -20v-109c0 -2 -3 -3 -4 -2l-126 127c13 3 26 4 40 4zM20 281h110c2 0 2 -2 1 -3l-127 -127 c-3 13 -4 27 -4 41c0 32 7 62 20 89zM139 388l77 -77c1 -1 1 -4 -1 -4h-180c25 37 61 66 104 81zM119 227c0 1 0 2 1 3l50 50c1 1 2 1 3 1h71c1 0 1 0 2 -1l50 -50c1 -1 2 -2 2 -3v-70c0 -1 -1 -2 -2 -3l-50 -50c-1 -1 -1 -1 -2 -1h-71c-1 0 -2 0 -3 1l-50 50 c-1 1 -1 2 -1 3v70zM412 232c3 -13 4 -26 4 -40c0 -32 -7 -62 -20 -89h-109c-2 0 -2 2 -1 3zM324 365c37 -25 65 -61 80 -104l-77 -77c-1 -1 -3 0 -3 2v179zM12 122l78 78c1 1 3 0 3 -2v-179c-37 25 -66 60 -81 103z"/>
    <glyph glyph-name="ion-md-document" unicode="" horiz-adv-x="320" d="M192 400l128 -128v-248c0 -22 -18 -40 -40 -40h-240c-22 0 -40 18 -40 40v336c0 22 18 40 40 40h152zM176 256h112l-112 112v-112z"/>
    <glyph glyph-name="ion-ios-bicycle" unicode="" horiz-adv-x="448" d="M93 159c-17 0 -34 -8 -46 -20s-19 -29 -19 -46s7 -34 19 -46s29 -19 46 -19s34 7 46 19s20 29 20 46s-8 35 -20 47s-29 19 -46 19zM93 187v0c51 0 94 -43 94 -94s-43 -93 -94 -93s-93 42 -93 93s42 94 93 94zM288 320c-18 0 -32 14 -32 32s14 32 32 32s32 -14 32 -32 s-14 -32 -32 -32zM355 159c-17 0 -34 -8 -46 -20s-20 -29 -20 -46s8 -34 20 -46s29 -19 46 -19s34 7 46 19s19 29 19 46s-7 35 -19 47s-29 19 -46 19zM355 187v0c51 0 93 -43 93 -94s-42 -93 -93 -93s-94 42 -94 93s43 94 94 94zM336 256c9 0 16 -7 16 -16s-7 -16 -16 -16 h-57s-19 24 -38 52l-49 -52c18 -14 48 -25 48 -38v-90c0 -9 -7 -16 -16 -16s-16 7 -16 16v66s-16 16 -62 42c-6 4 -18 10 -18 27c0 8 3 17 9 23l72 69c6 6 14 9 22 9c11 0 21 -7 27 -16l30 -60h48z"/>
    <glyph glyph-name="ion-ios-clipboard" unicode="" horiz-adv-x="352" d="M60 288c0 9 7 16 16 16h200c9 0 16 -7 16 -16v-240c0 -9 -7 -16 -16 -16h-200c-9 0 -16 7 -16 16v240zM242 367c8 0 14 -7 14 -15v-18c0 -1 -1 -2 -2 -2h-156c-1 0 -2 1 -2 2v16c0 10 8 17 18 17h14c0 6 1 11 3 16c2 6 6 11 10 16c9 10 21 17 35 17s27 -7 36 -17 c4 -5 8 -10 10 -16c2 -5 2 -10 2 -16h18zM179 352c7 1 12 6 13 13c1 10 -8 19 -18 18c-7 -1 -12 -7 -13 -14c-1 -10 8 -18 18 -17zM320 400c18 0 32 -14 32 -32v-368c0 -17 -15 -32 -32 -32h-288c-18 0 -32 14 -32 56v344c0 18 14 32 32 32h76c2 0 3 -2 2 -3 c-3 -4 -6 -9 -8 -16c0 -1 0 -1 -1 -1h-1c-22 0 -27 -18 -27 -37v-9c0 -1 -1 -2 -2 -2h-22c-9 0 -16 -7 -16 -16v-297c0 -9 7 -16 16 -16h253c9 0 16 7 16 16v297c0 9 -7 16 -16 16h-20c-1 0 -2 1 -2 2v14v1v0c-1 19 -8 34 -27 34h-1c-1 0 -2 0 -2 1c-2 5 -4 9 -7 13 c-1 1 0 3 2 3h75z"/>
    <glyph glyph-name="ion-ios-arrow-dropright-circle" unicode="" d="M0 192c0 115 93 208 208 208s208 -93 208 -208s-93 -208 -208 -208s-208 93 -208 208zM244 192l-79 -81c-8 -8 -8 -19 0 -27c4 -4 8 -6 13 -6s10 2 14 6l94 94c7 8 6 20 -1 27l-95 95c-8 8 -19 8 -27 0s-8 -19 0 -27z"/>
    <glyph glyph-name="ion-md-mail-unread" unicode="" horiz-adv-x="464" d="M336 320c0 35 29 64 64 64s64 -29 64 -64s-29 -64 -64 -64s-64 29 -64 64zM351 245c14 -9 31 -15 49 -15s34 5 48 14v-185c0 -24 -19 -43 -43 -43h-362c-24 0 -43 19 -43 43v266c0 24 19 43 43 43h281c-9 -14 -14 -30 -14 -48s5 -36 15 -50l-101 -67l-176 117v-43 l176 -117z"/>
    <glyph glyph-name="ion-md-shirt" unicode="" horiz-adv-x="384" d="M256 384l128 -32v-96l-77 16l13 -272h-256l13 272l-77 -16v96l128 32c11 -19 40 -32 64 -32s53 13 64 32z"/>
    <glyph glyph-name="ion-ios-finger-print" unicode="" d="M403 266c8 -24 13 -50 13 -73v-11c0 -7 -7 -13 -14 -13v0c-4 0 -8 1 -10 4s-4 6 -4 10c0 2 1 7 1 10c0 20 -5 42 -12 63s-17 38 -27 48c-5 5 -5 15 0 20c3 3 6 4 10 4v0c4 0 7 -1 10 -4c13 -13 24 -34 33 -58zM95 337c-4 0 -9 2 -11 6c-2 3 -3 6 -2 10s2 7 5 9 c35 25 76 38 121 38c47 0 92 -17 131 -49c6 -5 7 -13 2 -19c-3 -3 -7 -5 -11 -5c-3 0 -6 1 -8 3c-34 28 -73 43 -114 43c-39 0 -75 -12 -105 -33c-2 -2 -5 -3 -8 -3zM27 193c0 -30 6 -53 15 -82c1 -4 1 -8 -1 -11s-5 -5 -9 -6c-1 0 -3 -1 -4 -1c-6 0 -11 4 -13 10 c-10 31 -15 57 -15 90c0 50 18 99 51 137c3 3 7 4 11 4v0c3 0 6 -1 8 -3c3 -2 5 -5 5 -9s-1 -7 -3 -10c-29 -33 -45 -75 -45 -119zM308 318c26 -23 46 -55 57 -94c12 -43 16 -96 10 -155c-1 -7 -7 -12 -14 -12h-1c-8 1 -13 7 -12 15c5 55 2 106 -9 145c-10 34 -27 62 -49 81 s-50 29 -79 29c-40 0 -76 -14 -101 -41c-23 -25 -36 -59 -33 -95c2 -31 6 -48 9 -63c5 -23 9 -42 6 -92c0 -7 -7 -13 -14 -13c-1 0 -3 1 -4 1c-6 2 -10 7 -10 14c3 46 -1 64 -5 85c-3 16 -7 33 -9 66c-3 43 11 84 40 115c30 32 73 50 121 50c36 0 70 -12 97 -36zM326 180 c5 -31 7 -56 7 -77c0 -42 -5 -76 -5 -77c-1 -7 -7 -12 -14 -12h-2c-4 1 -7 3 -9 6s-3 6 -2 10c0 0 4 33 4 73c0 20 -2 43 -7 73c-5 31 -16 57 -32 75c-16 17 -36 26 -58 26c-15 0 -29 -3 -42 -9c-2 -1 -4 -1 -6 -1c-4 0 -8 2 -11 5s-4 8 -3 12s4 7 8 9c16 8 35 12 54 12 c30 0 56 -12 77 -34s35 -53 41 -91zM137 244c-11 -16 -14 -35 -10 -59c9 -54 18 -116 10 -174c-1 -7 -7 -12 -14 -12h-1c-4 0 -7 2 -9 5s-3 7 -3 11c8 54 -1 114 -10 165c-5 31 0 58 15 80c3 4 7 6 11 6c3 0 7 -1 9 -3c5 -5 6 -13 2 -19zM270 60c7 0 13 -5 13 -13 c0 -1 1 -21 -3 -41c-1 -6 -6 -11 -13 -11h-5c-6 2 -10 9 -9 16c3 17 3 35 3 35c0 8 5 14 13 14h1zM247 242c11 -10 19 -26 24 -44c8 -28 11 -67 12 -114c0 -4 -2 -7 -4 -10c-3 -3 -5 -4 -9 -4v0c-8 0 -14 7 -14 14c-1 45 -5 82 -12 108c-3 12 -13 39 -38 39 c-11 0 -20 -4 -26 -11c-6 -8 -9 -21 -6 -37c13 -65 16 -127 9 -184c-1 -7 -7 -12 -14 -12h-1c-7 1 -13 7 -12 15c7 54 4 114 -8 176c-6 31 2 50 10 60c11 13 28 20 48 20c15 0 30 -6 41 -16zM217 202c8 -19 14 -51 16 -90c3 -39 2 -80 -2 -116c-1 -7 -6 -12 -13 -12h-2 c-4 0 -7 2 -9 5s-3 6 -3 10c4 33 4 73 2 110s-7 67 -14 83c-3 7 0 15 7 18c2 1 3 1 5 1v0c6 0 11 -4 13 -9z"/>
    <glyph glyph-name="ion-logo-buffer" unicode="" horiz-adv-x="384" d="M7 284c-9 4 -9 11 0 15l169 82c4 2 10 3 16 3s12 -1 16 -3l169 -82c9 -4 9 -11 0 -15l-169 -82c-4 -2 -10 -3 -16 -3s-12 1 -16 3zM377 200c9 -4 9 -12 0 -16l-169 -81c-4 -2 -10 -4 -16 -4s-12 2 -16 4l-169 81c-9 4 -9 12 0 16c0 0 27 13 33 16c5 3 7 3 13 0 s123 -60 123 -60c4 -2 10 -3 16 -3s12 1 16 3c0 0 121 59 125 61s5 2 9 0s35 -17 35 -17zM377 100c9 -4 9 -11 0 -15l-169 -82c-4 -2 -10 -3 -16 -3s-12 1 -16 3l-169 82c-9 4 -9 11 0 15c0 0 27 14 33 17c5 3 7 2 13 -1s123 -59 123 -59c4 -2 10 -3 16 -3s12 1 16 3 c0 0 121 58 125 60s5 2 9 0s35 -17 35 -17z"/>
    <glyph glyph-name="ion-ios-arrow-forward" unicode="" horiz-adv-x="192" d="M134 192l-127 127c-9 9 -9 25 0 34s25 9 34 0l144 -144c9 -9 10 -24 1 -33l-145 -145c-5 -5 -11 -7 -17 -7s-12 2 -17 7c-9 9 -9 25 0 34z"/>
    <glyph glyph-name="ion-md-construct" unicode="" horiz-adv-x="480" d="M415 55c7 -5 7 -18 -2 -25l-41 -41c-7 -7 -17 -7 -24 0l-114 113l-96 -112c-8 -8 -19 -8 -27 0l-43 43c-10 8 -10 21 -2 27l105 105l-14 15c-41 -16 -89 -8 -123 26c-35 35 -44 88 -23 130l78 -75l53 53l-76 75c42 19 96 12 131 -23c34 -34 43 -80 27 -121l13 -13v0 l58 -58v0zM478 231c2 -2 2 -5 0 -7l-55 -56c-2 -2 -6 -2 -8 0l-35 34c-2 2 -2 6 0 8l10 10l-14 13c-6 4 -17 4 -30 0l-31 -37l-57 57l29 28s-1 47 -17 60s-45 29 -45 29v30c30 0 55 -7 91 -25s63 -45 70 -52s17 -18 23 -27s5 -18 5 -18l18 -16l4 4c2 2 6 2 8 0z"/>
    <glyph glyph-name="ion-ios-restaurant" unicode="" horiz-adv-x="288" d="M272 384c5 0 16 0 16 -11v-357c0 -9 -7 -16 -16 -16s-16 7 -16 16v128s-32 23 -32 80c0 83 23 160 48 160zM176 384h8s24 -107 24 -128s-13 -38 -32 -45v-195c0 -9 -7 -16 -16 -16s-16 7 -16 16v195c-19 7 -32 24 -32 45s24 128 24 128h8l-10 -104c0 -4 4 -8 8 -8 s8 4 8 8l6 104h8l6 -104c0 -4 4 -8 8 -8s8 4 8 8zM48 384c26 0 48 -64 48 -128c0 -21 -13 -38 -32 -45v-195c0 -9 -7 -16 -16 -16s-16 7 -16 16v195c-19 7 -32 24 -32 45c0 64 22 128 48 128z"/>
    <glyph glyph-name="ion-md-repeat" unicode="" horiz-adv-x="384" d="M85 296v0v-83h-42v125h256v62l85 -83l-85 -83v62h-214zM299 88v0v83h42v-125h-256v-62l-85 83l85 83v-62h214z"/>
    <glyph glyph-name="ion-ios-reverse-camera" unicode="" horiz-adv-x="384" d="M354 288c18 0 30 -13 30 -31v-176c0 -18 -12 -33 -30 -33h-320c-18 0 -34 15 -34 33v176c0 18 16 31 34 31h7v8c0 4 4 8 8 8h26c4 0 8 -4 8 -8v-8h4c4 0 9 2 12 5c28 32 40 43 52 43h85c12 0 23 -11 51 -43c3 -3 7 -5 12 -5h55zM244 108c1 4 1 8 -2 11c-2 2 -5 4 -8 4 c-2 0 -5 -2 -7 -3c-11 -8 -23 -11 -35 -11c-15 0 -30 5 -42 16c-10 9 -16 21 -19 34h20c1 0 1 1 2 1c3 2 4 5 2 8l-32 42c-1 1 -3 2 -5 2s-3 -1 -4 -2l-31 -42s-1 -1 -1 -2c0 -4 3 -6 6 -6h20c3 -19 12 -37 27 -51c16 -15 36 -22 57 -22c17 0 34 4 48 14c2 2 3 5 4 7z M301 175c2 3 1 7 -2 9h-2h-21c-3 20 -13 40 -26 52c-16 14 -36 23 -58 23c-17 0 -34 -5 -48 -15c-2 -1 -3 -4 -4 -6c-1 -4 -1 -9 2 -12c2 -2 5 -3 8 -3c2 0 5 1 7 2c11 7 23 11 35 11c15 0 29 -5 41 -16c10 -10 17 -22 20 -36h-21h-2c-3 -2 -4 -6 -2 -9l33 -43v-1 c3 -2 7 -1 9 1z"/>
    <glyph glyph-name="ion-md-move" unicode="" horiz-adv-x="448" d="M448 192l-96 -96v64h-96v-96h64l-96 -96l-96 96h64v96h-96v-64l-96 96l96 96v-64h96v96h-64l96 96l96 -96h-64v-96h96v64z"/>
    <glyph glyph-name="ion-ios-book" unicode="" d="M98 384c54 0 100 -28 100 -82v-16v0v0v0v-284c0 -2 -3 -3 -4 -1v0c-10 34 -38 68 -82 71c-34 2 -67 -13 -93 -37c-2 -2 -5 -3 -7 -3h-4c-4 0 -8 3 -8 6v290c0 32 44 56 98 56zM318 384c54 0 98 -24 98 -56v-290c0 -3 -4 -6 -8 -6h-4c-2 0 -5 2 -7 3c-29 26 -60 39 -93 37 c-43 -3 -72 -36 -82 -70v-1c-1 -2 -4 -1 -4 1v284v0v0v0v16c0 54 46 82 100 82z"/>
    <glyph glyph-name="ion-ios-cloud-outline" unicode="" horiz-adv-x="512" d="M288 324c-40 0 -77 -20 -100 -53l-7 -9c-4 -5 -10 -7 -16 -5l-11 4c-5 2 -10 4 -16 4c-11 0 -22 -5 -30 -14s-14 -20 -14 -32v-11c0 -6 -4 -10 -9 -12l-10 -4c-14 -4 -25 -13 -34 -25c-8 -12 -13 -27 -13 -41c0 -17 7 -33 19 -46s28 -20 44 -20h330c16 0 32 7 44 20 s19 29 19 46c0 15 -5 30 -15 42s-23 21 -37 23l-11 2c-6 1 -10 5 -11 11l-1 11c-3 30 -17 57 -39 77s-52 32 -82 32zM288 352v0c77 0 141 -59 149 -134c43 -8 75 -47 75 -92c0 -50 -41 -94 -91 -94h-330c-50 0 -91 44 -91 94c0 41 26 80 66 93c1 39 33 74 72 74 c10 0 19 -3 27 -6c27 39 72 65 123 65z"/>
    <glyph glyph-name="ion-ios-arrow-dropdown-circle" unicode="" d="M0 192c0 115 93 208 208 208s208 -93 208 -208s-93 -208 -208 -208s-208 93 -208 208zM289 235l-81 -79l-81 81c-8 8 -19 8 -27 0s-8 -19 0 -27l95 -95c7 -7 19 -8 27 -1l94 94c4 4 6 9 6 14s-2 9 -6 13c-8 8 -19 8 -27 0z"/>
    <glyph glyph-name="ion-md-pin" unicode="" horiz-adv-x="320" d="M160 416c88 0 160 -71 160 -157c0 -118 -160 -291 -160 -291s-160 173 -160 291c0 86 72 157 160 157zM160 203c32 0 57 25 57 56s-25 56 -57 56s-57 -25 -57 -56s25 -56 57 -56z"/>
    <glyph glyph-name="ion-ios-list-box" unicode="" d="M0 365c0 19 16 35 35 35h346c19 0 35 -16 35 -35v-346c0 -19 -16 -35 -35 -35h-346c-19 0 -35 16 -35 35v346zM89 68c9 1 16 8 17 17c2 13 -9 25 -22 23c-9 -1 -16 -8 -17 -17c-2 -13 9 -25 22 -23zM89 172c9 1 16 8 17 17c2 13 -9 25 -22 23c-9 -1 -16 -8 -17 -17 c-2 -13 9 -25 22 -23zM89 276c9 1 16 8 17 17c2 13 -9 25 -22 23c-9 -1 -16 -8 -17 -17c-2 -13 9 -25 22 -23zM337 74c8 0 14 6 14 14v0c0 8 -6 14 -14 14h-180c-8 0 -14 -6 -14 -14v0c0 -8 6 -14 14 -14h180zM337 178c8 0 14 6 14 14v0c0 8 -6 14 -14 14h-180 c-8 0 -14 -6 -14 -14v0c0 -8 6 -14 14 -14h180zM337 282c8 0 14 6 14 14v0c0 8 -6 14 -14 14h-180c-8 0 -14 -6 -14 -14v0c0 -8 6 -14 14 -14h180z"/>
    <glyph glyph-name="ion-ios-disc" unicode="" d="M208 282c50 0 90 -40 90 -90s-40 -90 -90 -90s-90 40 -90 90s40 90 90 90zM208 152c22 0 40 18 40 40s-18 40 -40 40s-40 -18 -40 -40s18 -40 40 -40zM208 400c115 0 208 -93 208 -208s-93 -208 -208 -208s-208 93 -208 208s93 208 208 208zM208 78c63 0 114 51 114 114 s-51 114 -114 114s-114 -51 -114 -114s51 -114 114 -114z"/>
    <glyph glyph-name="ion-ios-cube" unicode="" d="M393 318c6 -3 6 -11 0 -14l-179 -94c-4 -2 -8 -2 -12 0l-179 94c-6 3 -6 11 0 14l179 81c4 2 8 2 12 0zM232 -15c-5 -3 -11 1 -11 7v187c0 3 1 6 4 7l180 93c5 3 11 -1 11 -7v-185c0 -3 -2 -6 -4 -7zM0 272c0 6 6 10 11 7l180 -93c3 -1 4 -4 4 -7v-187 c0 -6 -6 -10 -11 -7l-180 95c-2 1 -4 4 -4 7v185z"/>
    <glyph glyph-name="ion-md-thunderstorm" unicode="" horiz-adv-x="448" d="M361 287c48 -3 87 -44 87 -93c0 -52 -41 -82 -93 -82h-94l18 36h-33l33 67h-99v-103h-68c-62 0 -112 38 -112 100c0 55 38 100 91 111c6 1 15 2 21 2c50 0 91 -31 106 -75h33c-6 24 -19 47 -37 65c-25 25 -57 37 -91 40c25 31 61 45 101 45c68 0 124 -48 137 -113z M180 80v32h81l-59 -128v96h-22z"/>
    <glyph glyph-name="ion-md-male" unicode="" d="M368 400h48v-48v-128h-48v94l-107 -107c17 -24 27 -52 27 -83c0 -80 -64 -144 -144 -144s-144 64 -144 144s64 144 144 144c31 0 59 -10 83 -27l107 107h-94v48h128zM144 32c53 0 96 43 96 96s-43 96 -96 96s-96 -43 -96 -96s43 -96 96 -96z"/>
    <glyph glyph-name="ion-ios-color-wand" unicode="" horiz-adv-x="384" d="M382 42c3 -3 3 -8 0 -11l-29 -29c-3 -3 -8 -3 -11 0l-245 246c-3 3 -3 8 0 11l29 29c3 3 8 3 11 0zM356 28c3 3 3 8 0 11l-190 191c-3 3 -8 3 -11 0v0c-3 -3 -3 -9 0 -12l190 -190c3 -3 8 -3 11 0v0zM129 328c-7 0 -12 5 -12 12v32c0 7 5 12 12 12s12 -5 12 -12v-32 c0 -7 -5 -12 -12 -12zM129 185c7 0 12 -5 12 -12v-32c0 -7 -5 -12 -12 -12s-12 5 -12 12v32c0 7 5 12 12 12zM207 258c0 7 5 12 12 12h32c7 0 12 -5 12 -12s-5 -12 -12 -12h-32c-7 0 -12 5 -12 12zM56 258c0 -7 -6 -12 -12 -12h-32c-7 0 -12 5 -12 12s5 12 12 12h32 c7 0 12 -5 12 -12zM61 307l-21 21c-5 5 -5 12 0 17c2 2 5 3 8 3s7 -1 9 -3l21 -21c5 -5 5 -12 0 -17c-2 -2 -6 -3 -9 -3s-6 1 -8 3zM69 208c3 0 7 -1 9 -3c5 -5 5 -12 0 -17l-21 -21c-2 -2 -6 -4 -9 -4s-6 2 -8 4s-4 5 -4 8s2 7 4 9l21 21c2 2 5 3 8 3v0zM188 304 c-3 0 -6 1 -8 3s-4 6 -4 9s2 6 4 8l21 21c2 2 5 3 8 3s7 -1 9 -3c5 -5 5 -12 0 -17l-21 -21c-2 -2 -6 -3 -9 -3z"/>
    <glyph glyph-name="ion-ios-pie" unicode="" horiz-adv-x="448" d="M244 380c0 2 2 4 4 4c111 -4 200 -96 200 -208c0 -114 -92 -207 -207 -208c-88 -1 -164 54 -195 131c-1 2 1 5 3 6l189 48c4 1 6 4 6 8v219zM0 209c0 90 59 205 216 207c2 0 4 -2 4 -4v-229c0 -4 -2 -7 -6 -8l-194 -50c-2 0 -4 1 -5 3c-15 32 -15 81 -15 81z"/>
    <glyph glyph-name="ion-md-person" unicode="" horiz-adv-x="384" d="M192 192c-53 0 -96 43 -96 96s43 96 96 96s96 -43 96 -96s-43 -96 -96 -96zM192 144c64 0 192 -32 192 -96v-48h-384v48c0 64 128 96 192 96z"/>
    <glyph glyph-name="ion-md-alert" unicode="" d="M208 400c114 0 208 -94 208 -208s-94 -208 -208 -208s-208 94 -208 208s94 208 208 208zM232 88v40h-48v-40h48zM232 176v128h-48v-128h48z"/>
    <glyph glyph-name="ion-md-tennisball" unicode="" d="M336 356c-42 -45 -64 -103 -64 -164s23 -119 65 -163c-36 -28 -81 -45 -129 -45s-93 17 -128 45c42 44 64 102 64 163s-22 119 -64 164c35 28 80 44 128 44s93 -16 128 -44zM305 193c0 27 5 53 15 78c9 23 23 44 40 62c35 -37 56 -87 56 -141s-21 -103 -55 -140 c-18 19 -31 39 -41 63c-10 25 -15 51 -15 78zM111 193c0 -27 -5 -53 -15 -78c-10 -24 -23 -45 -41 -64c-34 37 -55 87 -55 141c0 55 21 105 56 142c17 -18 31 -40 40 -63c10 -25 15 -51 15 -78z"/>
    <glyph glyph-name="ion-logo-closed-captioning" unicode="" horiz-adv-x="448" d="M0 352h448v-320h-448v320zM406 192c0 23 0 38 -3 70s-20 50 -52 53s-86 3 -127 3s-95 0 -127 -3s-49 -21 -52 -53s-3 -47 -3 -70s1 -41 3 -70s17 -50 52 -53s84 -3 127 -3s92 0 127 3s50 24 52 53s3 47 3 70zM326 168c0 1 -1 3 -1 3h46c0 -24 -5 -42 -16 -54 s-29 -19 -54 -19c-12 0 -22 2 -31 5s-15 8 -21 15s-10 16 -13 28s-5 28 -5 46s2 33 6 45s8 22 15 29s15 12 24 15s19 5 30 5c22 0 38 -7 49 -19s17 -32 17 -54h-46v1c0 18 -11 29 -24 29c-14 0 -22 -9 -24 -26c0 0 -1 -10 -1 -26s1 -24 1 -24c1 -15 10 -26 24 -26 s24 10 24 26v1zM171 168c0 1 -1 3 -1 3h46c0 -24 -5 -42 -16 -54s-29 -19 -54 -19c-12 0 -21 2 -30 5s-16 8 -22 15s-10 16 -13 28s-5 28 -5 46s2 33 6 45s8 22 15 29s15 12 24 15s19 5 30 5c22 0 38 -7 49 -19s17 -32 17 -54h-45v1c0 18 -11 29 -24 29 c-14 0 -23 -9 -25 -26c0 0 -1 -10 -1 -26s1 -24 1 -24c1 -15 10 -26 24 -26s24 10 24 26v1z"/>
    <glyph glyph-name="ion-ios-qr-scanner" unicode="" d="M126 384c8 0 14 -6 14 -14s-6 -14 -14 -14h-60c-9 0 -18 -4 -26 -12c-7 -8 -12 -17 -12 -26v-60c0 -8 -6 -14 -14 -14s-14 6 -14 14v59c0 37 30 67 67 67h59zM350 384c36 0 66 -30 66 -66v-60c0 -8 -6 -14 -14 -14s-14 6 -14 14v60c0 9 -5 18 -12 26c-8 8 -17 12 -26 12 h-60c-8 0 -14 6 -14 14s6 14 14 14h60zM126 28c8 0 14 -6 14 -14s-6 -14 -14 -14h-60c-36 0 -66 30 -66 66v60c0 8 6 14 14 14s14 -6 14 -14v-60c0 -9 5 -18 12 -26c8 -8 17 -12 26 -12h60zM402 140c8 0 14 -6 14 -14v-59c0 -37 -30 -67 -67 -67h-59c-8 0 -14 6 -14 14 s6 14 14 14h60c9 0 18 4 26 12c7 8 12 17 12 26v60c0 8 6 14 14 14z"/>
    <glyph glyph-name="ion-md-flashlight" unicode="" horiz-adv-x="352" d="M48 150l1 122h255v-122l-64 -64v-118h-128v118zM155 416h42v-64h-42v64zM0 338l30 30l45 -46l-30 -30zM277 322l45 46l30 -30l-45 -46z"/>
    <glyph glyph-name="ion-ios-code" unicode="" horiz-adv-x="384" d="M268 305l114 -109c1 -1 2 -2 2 -4s-1 -3 -2 -4l-114 -109c-1 -1 -2 -2 -4 -2s-3 1 -4 2l-14 13c-1 1 -2 2 -2 4s1 3 2 4l96 92l-96 92c-1 1 -2 2 -2 4s1 3 2 4l14 13c1 1 3 2 4 2s3 -1 4 -2zM140 288c0 -2 -1 -3 -2 -4l-96 -92l96 -92c1 -1 2 -2 2 -4s-1 -3 -2 -4 l-14 -13c-1 -1 -2 -2 -4 -2c-1 0 -3 1 -4 2l-114 109c-1 1 -2 2 -2 4s1 3 2 4l114 109c1 1 3 2 4 2s3 -1 4 -2l14 -13c1 -1 2 -2 2 -4z"/>
    <glyph glyph-name="ion-md-bowtie" unicode="" horiz-adv-x="448" d="M244 144h-40c-15 0 -28 13 -28 28v40c0 15 13 28 28 28h40c15 0 28 -13 28 -28v-40c0 -15 -13 -28 -28 -28zM144 168c0 -18 8 -35 22 -45c-6 -27 -102 -91 -134 -91c-18 0 -32 14 -32 32v256c0 18 14 32 32 32c32 0 128 -64 134 -91c-14 -10 -22 -27 -22 -45v-48z M416 352c18 0 32 -14 32 -32v-256c0 -18 -14 -32 -32 -32c-32 0 -128 64 -134 91c14 10 22 27 22 45v48c0 18 -8 35 -22 45c6 27 102 91 134 91z"/>
    <glyph glyph-name="ion-md-infinite" unicode="" d="M387 260c19 -18 29 -42 29 -68s-11 -50 -30 -68s-43 -28 -70 -28c-26 0 -51 10 -70 28l-38 36l-38 -36c-19 -18 -43 -28 -70 -28s-52 10 -71 28s-29 42 -29 68s10 50 29 68s44 28 71 28c26 0 51 -10 70 -28l108 -104c10 -10 24 -15 38 -15s28 5 38 15s15 22 15 36 s-5 26 -15 36s-24 15 -38 15s-28 -5 -38 -15v0l-17 -16l-33 32l18 16c19 18 43 28 70 28s52 -10 71 -28zM138 156l37 36l-37 36c-10 10 -24 15 -38 15s-28 -5 -38 -15s-15 -22 -15 -36s5 -26 15 -36s24 -15 38 -15s28 5 38 15z"/>
    <glyph glyph-name="ion-md-volume-off" unicode="" horiz-adv-x="384" d="M342 192c0 69 -45 128 -107 147v45c85 -20 149 -99 149 -192c0 -35 -8 -68 -24 -96l-32 32c9 19 14 41 14 64zM192 368v-104l-51 51zM357 51v0l24 -24l-24 -24l-40 40c-23 -21 -51 -36 -82 -43v45c19 6 37 15 52 28l-95 95v-152l-107 112h-85v128h85l9 10l-91 91l24 24z M288 192c0 -7 0 -15 -2 -22l-51 51v60c32 -16 53 -51 53 -89z"/>
    <glyph glyph-name="ion-ios-flag" unicode="" horiz-adv-x="320" d="M311 367c5 1 9 -3 9 -8v-191c0 -4 -3 -7 -7 -8c0 0 -37 -7 -72 -7s-57 6 -83 12s-51 15 -77 15c-21 0 -37 -2 -47 -4c-4 -1 -6 -4 -6 -8v-154c0 -8 -8 -15 -16 -14c-7 1 -12 7 -12 14v354l4 3c2 1 21 13 77 13c28 0 55 -5 81 -11c25 -5 50 -12 78 -12c18 0 48 3 61 5 c4 0 7 1 10 1z"/>
    <glyph glyph-name="ion-md-cloud-download" unicode="" horiz-adv-x="480" d="M387 231c52 -3 93 -46 93 -99c0 -55 -45 -100 -100 -100h-260c-66 0 -120 54 -120 120c0 62 47 113 107 119c25 48 75 81 133 81c73 0 133 -52 147 -121zM208 180h-68l100 -100l100 100h-68v76h-64v-76z"/>
    <glyph glyph-name="ion-md-git-compare" unicode="" horiz-adv-x="448" d="M160 66v62l96 -96l-96 -96v64h-22c-39 0 -64 11 -84 36c-18 23 -22 48 -22 94v167c-19 11 -32 31 -32 55c0 35 29 64 64 64s64 -29 64 -64c0 -24 -13 -44 -32 -55v-167c0 -35 2 -47 8 -54c5 -6 9 -10 34 -10h22zM64 392c-22 0 -40 -18 -40 -40s18 -40 40 -40s40 18 40 40 s-18 40 -40 40zM416 87c19 -11 32 -31 32 -55c0 -35 -29 -64 -64 -64s-64 29 -64 64c0 24 13 44 32 55v170c0 35 -2 47 -8 54c-5 6 -9 9 -34 9h-22v-64l-96 96l96 96v-62h22c39 0 64 -10 84 -35c18 -23 22 -48 22 -94v-170zM384 -8c22 0 40 18 40 40s-18 40 -40 40 s-40 -18 -40 -40s18 -40 40 -40z"/>
    <glyph glyph-name="ion-ios-mic" unicode="" horiz-adv-x="220" d="M110 112c-35 0 -64 29 -64 64v160c0 35 29 64 64 64v0c35 0 64 -29 64 -64v-160c0 -35 -29 -64 -64 -64v0zM206 256c8 0 14 -6 14 -14v-69c0 -56 -42 -102 -96 -109v-52h36c8 0 14 -6 14 -14s-6 -14 -14 -14h-100c-8 0 -14 6 -14 14s6 14 14 14h36v52 c-54 7 -96 53 -96 109v69c0 8 6 14 14 14s14 -6 14 -14v-69c0 -45 37 -82 82 -82s82 37 82 82v69c0 8 6 14 14 14z"/>
    <glyph glyph-name="ion-md-transgender" unicode="" horiz-adv-x="448" d="M320 416h128v-128h-35v69l-88 -88c7 -15 11 -31 11 -49c0 -55 -40 -100 -91 -110v-46h63v-40h-63v-56h-42v56h-63v40h63v46c-52 10 -91 55 -91 110c0 18 4 34 11 49l-19 19l-31 -31l-29 29l31 31l-40 40v-69h-35v128h128v-35h-63l37 -37l32 32l28 -29l-31 -31l15 -15 c20 19 48 31 78 31c24 0 46 -7 64 -20c0 0 6 -5 14 -12l81 81h-63v35zM224 158c35 0 64 29 64 64s-29 64 -64 64s-64 -29 -64 -64s29 -64 64 -64z"/>
    <glyph glyph-name="ion-md-headset" unicode="" horiz-adv-x="384" d="M192 400c106 0 192 -88 192 -197v-153c0 -36 -29 -66 -64 -66h-64v176h85v43c0 85 -67 153 -149 153s-149 -68 -149 -153v-43h85v-176h-64c-35 0 -64 30 -64 66v153c0 109 86 197 192 197z"/>
    <glyph glyph-name="ion-md-arrow-down" unicode="" horiz-adv-x="342" d="M192 363v-260l120 120l30 -31l-171 -171l-171 171l30 30l120 -119v260h42z"/>
    <glyph glyph-name="ion-ios-partly-sunny" unicode="" horiz-adv-x="480" d="M152 384c9 0 16 -7 16 -16v-30c0 -9 -7 -16 -16 -16v0c-9 0 -16 7 -16 16v30c0 9 7 16 16 16v0zM63 232c0 -9 -7 -16 -16 -16h-31c-9 0 -16 7 -16 16v0c0 9 7 16 16 16h31c9 0 16 -7 16 -16v0zM64 299l-21 21c-6 6 -6 16 0 22c3 3 8 4 12 4v0c4 0 8 -1 11 -4l20 -21 c6 -6 6 -16 0 -22c-3 -3 -7 -5 -11 -5s-8 2 -11 5zM255 343c6 -6 6 -16 0 -22l-20 -21c-3 -3 -7 -4 -11 -4s-8 1 -11 4v0h-1c-6 6 -6 16 0 22l21 21c3 3 7 5 11 5v0c4 0 8 -2 11 -5zM77 175c4 0 8 -2 11 -5c6 -6 6 -16 0 -22l-20 -21c-3 -3 -7 -5 -11 -5s-9 2 -12 5 c-6 6 -6 17 0 23l21 20c3 3 7 5 11 5v0zM387 189c51 0 93 -43 93 -94s-42 -95 -93 -95h-226c-41 0 -74 36 -74 77c0 39 29 73 67 76v1v10v6c2 39 24 74 56 92c5 3 10 5 15 7c13 5 26 8 41 8c54 0 99 -39 110 -89c3 0 6 1 9 1h2zM135 164c-34 7 -59 36 -59 72 c0 40 33 74 73 74c23 0 45 -11 58 -28h-1c-5 -2 -9 -5 -14 -8c-33 -19 -56 -53 -58 -93v-6c0 -3 1 -7 1 -10v-1z"/>
    <glyph glyph-name="ion-md-cloudy-night" unicode="" horiz-adv-x="448" d="M91 265h2h-2zM310 145c42 -3 74 -38 74 -81c0 -44 -36 -80 -80 -80h-208c-53 0 -96 44 -96 97c0 47 32 86 78 95c5 1 13 1 18 1c43 0 78 -26 91 -64h28c-6 21 -16 40 -32 56c-21 21 -48 32 -77 34c21 27 52 39 86 39c58 0 107 -41 118 -97zM80 223l-13 -17v0v5 c0 92 63 168 148 189c-9 -21 -14 -45 -14 -70c0 -20 3 -39 9 -57c-6 1 -12 1 -18 1c-22 0 -43 -4 -61 -12c-20 -9 -37 -22 -51 -39zM386 141c-3 3 -6 7 -10 10h3c24 0 48 5 69 14c-7 -27 -19 -53 -35 -74c-4 19 -14 36 -27 50z"/>
    <glyph glyph-name="ion-md-nutrition" unicode="" d="M309 212c8 -8 13 -19 13 -31c0 -14 -6 -28 -17 -36l-233 -168c-9 -6 -19 -9 -28 -9c-25 0 -44 20 -44 44c0 8 2 15 5 21v1l158 255v0c8 10 21 16 35 16c10 0 20 -4 28 -10h1zM416 303l-109 -56l-42 41l68 128l49 -28l-32 -56l37 20z"/>
    <glyph glyph-name="ion-ios-options" unicode="" d="M251 72c6 14 21 24 37 24s31 -10 37 -24h75c9 0 16 -7 16 -16v0c0 -9 -7 -16 -16 -16h-75c-6 -14 -21 -24 -37 -24s-31 10 -37 24h-235c-9 0 -16 7 -16 16v0c0 9 7 16 16 16h235zM91 208c6 14 21 24 37 24s31 -10 37 -24h235c9 0 16 -7 16 -16v0c0 -9 -7 -16 -16 -16 h-235c-6 -14 -21 -24 -37 -24s-31 10 -37 24h-75c-9 0 -16 7 -16 16v0c0 9 7 16 16 16h75zM251 344c6 14 21 24 37 24s31 -10 37 -24h75c9 0 16 -7 16 -16v0c0 -9 -7 -16 -16 -16h-75c-6 -14 -21 -24 -37 -24s-31 10 -37 24h-235c-9 0 -16 7 -16 16v0c0 9 7 16 16 16h235z "/>
    <glyph glyph-name="ion-md-log-out" unicode="" d="M144 171v42h190l-45 45l31 30l96 -96l-96 -96l-30 30l44 45h-190zM208 27c44 0 85 17 116 48l30 -30c-8 -8 -17 -16 -27 -23c-35 -24 -76 -38 -119 -38c-114 0 -208 93 -208 208s94 208 208 208c43 0 84 -13 119 -37c10 -7 19 -16 27 -24l-30 -30c-31 31 -72 48 -116 48 s-86 -17 -117 -48s-48 -73 -48 -117s17 -86 48 -117s73 -48 117 -48zM401 192l-1 1l-1 -1l1 -1z"/>
    <glyph glyph-name="ion-md-appstore" unicode="" d="M416 296c-19 -214 -13 -312 -13 -312h-390s6 96 -13 312h104c0 57 47 104 104 104s104 -47 104 -104h104zM208 374c-43 0 -78 -35 -78 -78h156c0 43 -35 78 -78 78zM156 50l143 85l-143 84v-169z"/>
    <glyph glyph-name="ion-md-cellular" unicode="" horiz-adv-x="384" d="M0 0l384 384v-384h-384z"/>
    <glyph glyph-name="ion-ios-beer" unicode="" horiz-adv-x="384" d="M48 286v-96h-26c-9 0 -17 8 -17 17c0 16 11 22 11 35v51c0 19 -16 12 -16 41v4c0 26 25 43 50 43c10 0 18 -1 23 -2c6 -1 12 1 16 6c9 10 22 17 36 17c9 0 19 -2 26 -7c6 -4 13 -2 17 3c10 11 23 18 44 18c24 0 47 -16 56 -39c2 -5 7 -9 13 -9h1c21 0 38 -17 38 -38v-22 c0 -2 -3 -4 -5 -2v0c-4 3 -8 4 -13 4h-230c-13 0 -24 -11 -24 -24zM322 -4c8 0 14 -6 14 -14s-6 -14 -14 -14h-276c-8 0 -14 6 -14 14s6 14 14 14h276zM336 254c26 0 48 -22 48 -48v-96c0 -26 -22 -48 -48 -48h-32c0 -12 2 -18 5 -30c1 -6 0 -12 -5 -16c-3 -3 -7 -4 -11 -4 h-214c-6 0 -12 3 -15 8c-3 4 -4 9 -3 14v0c2 12 3 18 3 30v214c0 9 7 16 16 16h208c9 0 16 -7 16 -16v-24h32zM356 110v96c0 11 -9 20 -20 20h-32v-136h32c11 0 20 9 20 20z"/>
    <glyph glyph-name="ion-ios-snow" unicode="" horiz-adv-x="384" d="M377 102c7 -4 9 -13 5 -20c-3 -5 -8 -8 -13 -8c-3 0 -6 1 -8 2l-32 19c-4 -16 -2 -32 -2 -32c1 -8 -4 -15 -12 -17c-1 0 -2 -1 -3 -1c-7 0 -13 6 -14 13c0 1 -4 26 6 52l-96 56v-99c27 -5 46 -20 47 -21c3 -2 6 -6 6 -10s-1 -8 -4 -11s-7 -5 -11 -5c-3 0 -7 1 -10 3 c0 0 -12 10 -28 14v-38c0 -8 -8 -15 -16 -15s-15 7 -15 15v38c-16 -4 -29 -14 -29 -14c-3 -2 -7 -3 -10 -3c-4 0 -8 2 -11 5s-4 7 -4 11s3 8 6 10c1 1 21 16 48 21v99l-96 -56c10 -26 6 -51 6 -52c-1 -7 -7 -13 -14 -13c-1 0 -2 1 -3 1c-8 2 -13 9 -12 17c0 0 2 16 -3 32 l-32 -19c-2 -1 -5 -2 -8 -2c-5 0 -10 3 -13 8c-4 7 -2 16 5 20l33 19c-12 12 -26 19 -26 19c-8 3 -11 11 -9 19c2 6 7 9 13 9c2 0 4 0 6 -1c1 0 24 -10 42 -31l96 56l-96 56c-18 -21 -41 -31 -42 -31c-2 -1 -4 -1 -6 -1c-6 0 -11 4 -13 10c-2 8 1 16 9 19c0 0 14 6 26 18 l-33 19c-7 4 -9 13 -5 20c3 5 8 8 13 8c3 0 6 -1 8 -2l32 -19c5 16 3 32 3 32c-1 8 4 16 12 18h3c7 0 13 -6 14 -13c0 -1 4 -26 -6 -52l96 -56v100c-27 5 -47 19 -48 20c-3 2 -6 6 -6 10s1 8 4 11s7 5 11 5s7 -1 10 -3c0 0 13 -10 29 -14v38c0 8 7 15 15 15s16 -7 16 -15 v-38c16 4 28 14 28 14c3 2 7 3 10 3c4 0 8 -2 11 -5s4 -7 4 -11s-3 -8 -6 -10c-1 -1 -20 -16 -47 -21v-99l96 56c-10 26 -7 51 -7 52c1 7 8 13 15 13c1 0 2 -1 3 -1c8 -2 13 -9 12 -17c0 -1 -2 -16 2 -32l32 19c2 1 5 2 8 2c5 0 10 -3 13 -8c4 -7 2 -16 -5 -20l-33 -19 c12 -12 26 -19 26 -19c8 -3 11 -11 9 -19c-2 -6 -7 -9 -13 -9c-2 0 -4 0 -6 1c-1 0 -24 10 -42 31l-96 -56l96 -56c18 21 41 31 42 31c2 1 4 1 6 1c6 0 11 -4 13 -10c2 -8 -1 -16 -9 -19c0 0 -14 -6 -26 -18z"/>
    <glyph glyph-name="ion-ios-happy" unicode="" d="M208 400c115 0 208 -93 208 -208s-93 -208 -208 -208s-208 93 -208 208s93 208 208 208zM280 248c-13 0 -24 -11 -24 -24s11 -24 24 -24s24 11 24 24s-11 24 -24 24zM136 248c-13 0 -24 -11 -24 -24s11 -24 24 -24s24 11 24 24s-11 24 -24 24zM208 79c45 0 82 30 94 71 c2 5 -3 10 -8 10h-172c-5 0 -10 -5 -8 -10c12 -41 49 -71 94 -71z"/>
    <glyph glyph-name="ion-md-wallet" unicode="" d="M155 107c0 -24 18 -43 42 -43h197v-21c0 -24 -18 -43 -42 -43h-308c-24 0 -44 18 -44 42v300c0 24 20 42 44 42h308c23 0 42 -19 42 -43v-21h-197c-24 0 -42 -19 -42 -43v-170zM197 262c0 9 7 16 16 16h187c9 0 16 -7 16 -16v-140c0 -9 -7 -16 -16 -16h-187 c-9 0 -16 7 -16 16v140zM274 160c16 1 29 14 30 30c1 19 -15 35 -34 34c-16 -1 -29 -14 -30 -30c-1 -19 15 -35 34 -34z"/>
    <glyph glyph-name="ion-md-funnel" unicode="" horiz-adv-x="448" d="M176 48v48h96v-48h-96zM0 336h448v-48h-448v48zM80 167v50h288v-50h-288z"/>
    <glyph glyph-name="ion-ios-refresh-circle" unicode="" d="M208 400c115 0 208 -93 208 -208s-93 -208 -208 -208s-208 93 -208 208s93 208 208 208zM208 64c67 0 123 51 128 117c0 6 -4 11 -10 11v0c-5 0 -10 -4 -10 -9c-4 -55 -51 -98 -107 -99c-59 -1 -108 47 -109 106c-1 60 48 110 108 110v-42c0 -6 7 -10 12 -7l73 47 c5 3 5 10 0 13l-73 53c-5 4 -12 -1 -12 -7v-37c-71 0 -128 -57 -128 -128s57 -128 128 -128z"/>
    <glyph glyph-name="ion-ios-watch" unicode="" d="M392 287c16 -25 24 -53 24 -82v-41c0 -21 -4 -40 -12 -58c-8 -17 -19 -33 -33 -46c-28 -25 -66 -39 -108 -39c-41 0 -54 8 -65 14c-7 4 -13 6 -27 7c-38 2 -69 16 -94 40c-3 2 -4 5 -4 9c0 3 2 7 4 9c2 3 5 4 9 4c3 0 8 -1 10 -3c20 -19 45 -30 77 -32 c20 -1 29 -6 37 -11c9 -5 19 -10 53 -10c35 0 67 12 90 32c12 10 21 22 27 36c7 15 10 31 10 48v41c0 24 -7 48 -20 68c-12 20 -30 35 -51 46c-3 2 -6 5 -7 8s-1 7 1 10c2 4 7 7 12 7c2 0 4 0 6 -1c25 -13 46 -32 61 -56zM236 65c-6 1 -11 6 -11 13v2c1 6 7 11 13 11h2 c7 -1 14 -2 21 -2c26 0 48 9 65 25c2 2 6 4 9 4c4 0 7 -2 9 -5c5 -5 5 -13 0 -18c-11 -10 -24 -19 -38 -24s-29 -8 -45 -8c-8 0 -16 1 -25 2zM238 86v0v0v0zM175 26c7 0 13 -6 13 -13s-6 -13 -13 -13c-46 0 -86 16 -121 47s-54 73 -54 114v44c0 29 8 57 24 82 c15 24 36 43 61 56c2 1 4 1 6 1c5 0 10 -3 12 -7c2 -3 2 -7 1 -10s-4 -6 -7 -8c-21 -11 -39 -26 -51 -46c-13 -20 -20 -44 -20 -68v-44c0 -34 17 -68 46 -94c30 -27 63 -41 103 -41zM300 333c-1 -14 11 -26 25 -26v0c2 0 3 -3 1 -4c-8 -7 -18 -10 -29 -10h-178 c-11 0 -21 3 -29 9c-1 1 0 3 0 4v0c0 1 1 1 2 1c13 1 24 12 23 26c-1 12 -11 22 -23 23c-4 0 -7 -1 -10 -2s-5 2 -4 4c8 16 23 26 41 26h178c11 0 22 -4 30 -11c5 -4 8 -9 11 -15c1 -2 0 -5 -3 -4c-4 2 -8 2 -12 2c-12 -1 -22 -11 -23 -23zM279 343c-2 8 -9 15 -17 17 c-16 4 -31 -10 -27 -26c2 -8 9 -15 17 -17c16 -4 31 10 27 26z"/>
    <glyph glyph-name="ion-ios-reorder" unicode="" horiz-adv-x="352" d="M0 128v16h352v-16h-352zM0 184v16h352v-16h-352zM0 240v16h352v-16h-352z"/>
    <glyph glyph-name="ion-ios-volume-high" unicode="" horiz-adv-x="383" d="M151 302c6 -3 9 -8 9 -14v-192c0 -6 -3 -11 -9 -14c-2 -1 -5 -2 -7 -2c-4 0 -7 2 -10 4l-65 52h-53c-9 0 -16 7 -16 16v80c0 9 7 16 16 16h53l65 53c3 2 6 3 10 3c2 0 5 -1 7 -2zM383 192v0v0c0 -59 -23 -114 -65 -156c-2 -2 -6 -4 -9 -4s-6 2 -8 4c-5 5 -5 12 0 17 c38 37 58 86 58 139v0v0c0 53 -20 102 -58 139c-5 5 -5 12 0 17s12 5 17 0c42 -42 65 -97 65 -156zM320 192v0c0 -44 -16 -84 -46 -115c-2 -2 -6 -4 -9 -4s-6 2 -8 4c-5 5 -6 12 -1 17c26 26 40 61 40 98v0v0c0 37 -14 72 -40 98c-5 5 -4 12 1 17s12 5 17 0 c30 -31 46 -71 46 -115v0zM223 266c19 -20 30 -46 30 -74v0v0c0 -28 -11 -54 -30 -74c-2 -2 -6 -3 -9 -3s-6 1 -8 3c-5 5 -5 12 0 17c15 15 23 36 23 57v0v0c0 22 -8 42 -23 57c-5 5 -5 12 0 17s12 5 17 0z"/>
    <glyph glyph-name="ion-ios-contrast" unicode="" d="M208 400c115 0 208 -93 208 -208s-93 -208 -208 -208s-208 93 -208 208s93 208 208 208zM335 65c34 34 53 79 53 127s-19 93 -53 127s-79 53 -127 53v-360c48 0 93 19 127 53z"/>
    <glyph glyph-name="ion-ios-today" unicode="" horiz-adv-x="384" d="M324 416c33 0 60 -27 60 -60v-328c0 -33 -27 -60 -60 -60h-264c-33 0 -60 27 -60 60v328c0 33 27 60 60 60h264zM356 28v328c0 18 -14 32 -32 32h-264c-18 0 -32 -14 -32 -32v-328c0 -18 14 -32 32 -32h264c18 0 32 14 32 32zM296 272c13 0 24 -11 24 -24v-192 c0 -13 -11 -24 -24 -24h-208c-13 0 -24 11 -24 24v192c0 13 11 24 24 24h208zM78 324c-8 0 -14 6 -14 14s6 14 14 14h100c8 0 14 -6 14 -14s-6 -14 -14 -14h-100z"/>
    <glyph glyph-name="ion-ios-mic-off" unicode="" horiz-adv-x="256" d="M242 -16c-5 0 -9 3 -12 7l-228 388c-4 7 -2 15 5 19s16 2 20 -5l227 -388c4 -7 2 -15 -5 -19c-2 -1 -5 -2 -7 -2zM192 176c0 -9 -2 -17 -5 -25l-120 205c8 26 33 44 61 44v0c35 0 64 -29 64 -64v-160zM64 176v65l75 -128c-4 -1 -7 -1 -11 -1v0c-35 0 -64 29 -64 64z M238 173c0 -26 -9 -49 -24 -68l-15 26c7 12 11 27 11 42v69c0 8 6 14 14 14s14 -6 14 -14v-69zM128 91c8 0 15 1 22 3l15 -25c-7 -3 -15 -4 -23 -5v-52h36c8 0 14 -6 14 -14s-6 -14 -14 -14h-100c-8 0 -14 6 -14 14s6 14 14 14h36v52c-54 7 -96 53 -96 109v69 c0 8 6 14 14 14s14 -6 14 -14v-69c0 -45 37 -82 82 -82z"/>
    <glyph glyph-name="ion-ios-medkit" unicode="" d="M384 320c18 0 32 -14 32 -32v-256c0 -18 -14 -32 -32 -32h-352c-18 0 -32 14 -32 32v256c0 18 14 32 32 32h84v32c0 18 14 32 32 32h120c18 0 32 -14 32 -32v-32h84zM144 348v-28h128v28c0 4 -4 8 -8 8h-112c-4 0 -8 -4 -8 -8zM272 144c9 0 16 7 16 16s-7 16 -16 16h-32 h-16v16v32c0 9 -7 16 -16 16s-16 -7 -16 -16v-32v-16h-16h-32c-9 0 -16 -7 -16 -16s7 -16 16 -16h32h16v-16v-32c0 -9 7 -16 16 -16s16 7 16 16v32v16h16h32z"/>
    <glyph glyph-name="ion-ios-arrow-round-down" unicode="" horiz-adv-x="192" d="M188 152c5 -5 5 -13 0 -18l-83 -82c-2 -2 -6 -4 -9 -4c-2 0 -3 0 -5 1s-3 2 -4 3v0l-83 82c-5 5 -5 13 0 18s13 6 18 1l61 -61v231c0 7 6 13 13 13s13 -6 13 -13v-231l61 60c5 5 13 5 18 0z"/>
    <glyph glyph-name="ion-md-link" unicode="" horiz-adv-x="448" d="M43 192c0 -38 31 -69 69 -69h88v-43h-88c-62 0 -112 50 -112 112s50 112 112 112h88v-43h-88c-38 0 -69 -31 -69 -69zM128 170v44h192v-44h-192zM336 304c62 0 112 -50 112 -112s-50 -112 -112 -112h-88v43h88c38 0 69 31 69 69s-31 69 -69 69h-88v43h88z"/>
    <glyph glyph-name="ion-ios-chatbubbles" unicode="" d="M383 127l16 -58s1 -2 1 -3c0 -4 -4 -8 -8 -8c-2 0 -4 1 -4 1l-57 21c-3 1 -6 2 -10 2c-3 0 -6 -1 -9 -2s-15 -5 -26 -8s-32 -8 -47 -8c-96 0 -171 77 -171 169c0 12 2 23 4 34c16 76 86 133 170 133c96 0 174 -75 174 -167c0 -33 -11 -64 -28 -90c-1 -1 -1 -2 -2 -3 c-2 -4 -3 -9 -3 -13zM270 56c4 1 9 2 13 3c-4 -5 -7 -9 -7 -9c-30 -35 -73 -56 -120 -56c-21 0 -42 5 -61 12c-4 2 -6 2 -6 2c-2 0 -4 0 -6 -1l-56 -22c-1 0 -2 -1 -3 -1c-2 0 -3 1 -5 2c-2 2 -4 5 -3 8c0 0 12 60 12 62s-1 4 -3 8c-16 24 -25 53 -25 82c0 42 19 82 52 111 l8 7c-1 -4 -3 -9 -4 -13s-1 -9 -2 -13c-1 -6 -2 -14 -2 -21c0 -92 75 -169 171 -169c10 0 24 2 34 4c5 1 9 3 13 4z"/>
    <glyph glyph-name="ion-ios-beaker" unicode="" horiz-adv-x="384" d="M381 400c2 0 3 -1 3 -2s-2 -4 -3 -6s-12 -15 -14 -33v-310c0 -35 -28 -65 -63 -65h-208c-35 0 -64 29 -64 64v276c0 32 -2 32 -32 36c0 12 10 40 64 40h270h47zM48 371c12 -13 12 -29 12 -47v-36h279v0v71v3c0 3 1 6 2 10h-7h-270c-4 0 -10 0 -16 -1v0z"/>
    <glyph glyph-name="ion-ios-git-branch" unicode="" horiz-adv-x="332" d="M262 352c39 0 70 -31 70 -70c0 -34 -24 -63 -56 -69c-1 -28 -14 -46 -38 -64c-25 -19 -56 -25 -78 -29c-27 -5 -42 -14 -51 -24c19 -13 31 -35 31 -58c0 -39 -31 -70 -70 -70s-70 31 -70 70c0 17 6 33 17 46c10 11 24 19 38 22v172c-15 3 -28 11 -38 22 c-11 13 -17 29 -17 46c0 39 31 70 70 70s70 -31 70 -70c0 -17 -6 -34 -18 -47c-10 -11 -24 -19 -39 -22v-169c10 13 32 33 73 40c19 3 45 7 65 23c17 13 26 24 27 43c-32 7 -56 35 -56 68c0 39 31 70 70 70zM28 346c0 -23 19 -42 42 -42s42 19 42 42s-19 42 -42 42 s-42 -19 -42 -42zM112 38c0 23 -19 42 -42 42s-42 -19 -42 -42s19 -42 42 -42s42 19 42 42zM262 240c23 0 42 19 42 42s-19 42 -42 42s-42 -19 -42 -42s19 -42 42 -42z"/>
    <glyph glyph-name="ion-logo-google" unicode="" horiz-adv-x="408" d="M406 224c0 -1 2 -14 2 -37c0 -54 -18 -106 -54 -144s-87 -59 -141 -59c-59 0 -116 22 -156 64c-38 39 -57 92 -57 144s20 108 59 147c40 39 94 61 150 61v0c73 0 120 -38 137 -53l-58 -58c-10 9 -38 30 -77 30c-34 0 -68 -12 -90 -35c-23 -23 -39 -58 -39 -92 c0 -35 15 -69 39 -92c23 -22 58 -36 91 -36c46 0 102 30 114 87h-116v82h194z"/>
    <glyph glyph-name="ion-ios-recording" unicode="" horiz-adv-x="480" d="M370 302c61 0 110 -49 110 -110s-49 -110 -110 -110h-260c-61 0 -110 49 -110 110s49 110 110 110v0v0c61 0 110 -49 110 -110c0 -30 -12 -58 -32 -78h105c-20 20 -33 48 -33 78c0 61 49 110 110 110v0v0zM448 192c0 43 -35 78 -78 78s-78 -35 -78 -78s35 -78 78 -78 s78 35 78 78zM110 114c43 0 78 35 78 78s-35 78 -78 78s-78 -35 -78 -78s35 -78 78 -78z"/>
    <glyph glyph-name="ion-md-checkmark-circle" unicode="" d="M208 400c114 0 208 -94 208 -208s-94 -208 -208 -208s-208 94 -208 208s94 208 208 208zM165 81l192 192l-29 30l-163 -162l-76 77l-30 -30z"/>
    <glyph glyph-name="ion-ios-checkbox-outline" unicode="" horiz-adv-x="384" d="M352 384c18 0 32 -14 32 -32v-320c0 -18 -14 -32 -32 -32h-320c-18 0 -32 14 -32 32v320c0 18 14 32 32 32h320zM356 36v312c0 4 -4 8 -8 8h-312c-4 0 -8 -4 -8 -8v-312c0 -4 4 -8 8 -8h312c4 0 8 4 8 8zM300 255c2 -2 1 -4 0 -6l-134 -134v0c-2 -2 -7 -5 -12 -5 c-4 0 -7 1 -11 5l-56 56c-2 2 -2 4 0 6l17 18c1 1 2 1 3 1s2 0 3 -1l44 -45l122 123c1 1 2 1 3 1v0c1 0 2 0 3 -1z"/>
    <glyph glyph-name="ion-ios-arrow-round-up" unicode="" horiz-adv-x="192" d="M188 232c-5 -5 -13 -5 -18 0l-61 60v-231c0 -7 -6 -13 -13 -13s-13 6 -13 13v231l-61 -61c-5 -5 -13 -4 -18 1s-5 13 0 18l83 82v0c1 1 2 2 4 3s3 1 5 1c3 0 7 -2 9 -4l83 -82c5 -5 5 -13 0 -18z"/>
    <glyph glyph-name="ion-ios-home" unicode="" d="M211 344l156 -125c1 -1 1 -2 1 -3v-230c0 -1 -1 -2 -2 -2h-108c-1 0 -2 1 -2 2v140c0 1 -1 2 -2 2h-92c-1 0 -2 -1 -2 -2v-140c0 -1 -1 -2 -2 -2h-108c-1 0 -2 1 -2 2v230c0 1 1 2 2 3l156 125c2 1 3 1 5 0zM411 244c3 -2 5 -6 5 -10s-1 -8 -4 -11s-6 -4 -10 -4 c-3 0 -7 1 -9 3l-184 147l-1 1l-1 -1l-184 -148c-2 -2 -6 -3 -9 -3c-4 0 -7 1 -10 4s-4 7 -4 11s2 8 5 10l43 35v92c0 1 1 2 2 2h60c1 0 2 -1 2 -2v-42l82 67c4 3 9 5 14 5s10 -2 14 -5z"/>
    <glyph glyph-name="ion-ios-paper" unicode="" d="M76 368c0 18 12 30 30 30l278 2c18 0 32 -14 32 -32v-353c0 -17 -14 -31 -31 -31h-353c-18 0 -32 14 -32 32v288c0 18 14 32 32 32h16v-290c0 -8 6 -14 14 -14v0c8 0 14 6 14 14v322zM142 336c-8 0 -14 -6 -14 -14v0c0 -8 6 -14 14 -14h84c8 0 14 6 14 14v0 c0 8 -6 14 -14 14h-84zM142 176c-8 0 -14 -6 -14 -14v0c0 -8 6 -14 14 -14h148c8 0 14 6 14 14v0c0 8 -6 14 -14 14h-148zM338 68c8 0 14 6 14 14v0c0 8 -6 14 -14 14h-196c-8 0 -14 -6 -14 -14v0c0 -8 6 -14 14 -14h196zM338 228c8 0 14 6 14 14v0c0 8 -6 14 -14 14h-196 c-8 0 -14 -6 -14 -14v0c0 -8 6 -14 14 -14h196z"/>
    <glyph glyph-name="ion-md-cafe" unicode="" d="M0 0v48h368v-48h-368zM376 384c22 0 40 -18 40 -40v-80c0 -22 -18 -40 -40 -40h-40v-64c0 -44 -36 -80 -80 -80h-144c-44 0 -80 36 -80 80v224h293h11h40zM376 272v64h-40v-64h40z"/>
    <glyph glyph-name="ion-md-medical" unicode="" horiz-adv-x="408" d="M300 192l108 -62l-48 -84l-108 63v-125h-96v125l-108 -63l-48 84l108 62l-108 62l48 84l108 -63v125h96v-125l108 63l48 -84z"/>
    <glyph glyph-name="ion-ios-log-in" unicode="" horiz-adv-x="414" d="M368 368c25 0 46 -21 46 -46v-260c0 -25 -21 -46 -46 -46h-280c-25 0 -46 21 -46 46c0 8 6 14 14 14s14 -6 14 -14c0 -10 8 -18 18 -18h280c10 0 18 8 18 18v260c0 10 -8 18 -18 18h-280c-10 0 -18 -8 -18 -18c0 -8 -6 -14 -14 -14s-14 6 -14 14c0 25 21 46 46 46h280z M175 114l64 64h-225c-8 0 -14 6 -14 14s6 14 14 14h224l-65 64c-6 6 -6 14 0 20c3 3 6 4 10 4s7 -1 10 -4l84 -84c4 -4 7 -10 7 -15s-3 -11 -7 -15l-82 -82c-3 -3 -6 -4 -10 -4s-7 2 -10 4v0c-5 6 -5 15 0 20z"/>
    <glyph glyph-name="ion-ios-return-right" unicode="" horiz-adv-x="384" d="M378 183c4 -4 6 -10 6 -16s-3 -11 -7 -15l-57 -58c-3 -3 -6 -4 -10 -4s-7 2 -10 4v0c-3 3 -4 6 -4 10s1 7 4 10l40 40h-262c-21 0 -40 8 -55 23s-23 34 -23 55v48c0 8 6 14 14 14s14 -6 14 -14v-48c0 -13 5 -25 15 -35s22 -15 35 -15h261l-41 40v0c-3 3 -4 6 -4 10 s1 7 4 10s6 4 10 4s7 -1 10 -4z"/>
    <glyph glyph-name="ion-logo-bitbucket" unicode="" d="M405 384c7 -1 12 -8 11 -16l-18 -113h-256l22 -127h88l16 96h125l-34 -212c-1 -7 -6 -12 -13 -12h-271c-4 0 -9 1 -12 4v0c-3 3 -5 8 -6 12l-57 352v2c0 8 7 14 14 14h389h2z"/>
    <glyph glyph-name="ion-ios-man" unicode="" horiz-adv-x="228" d="M114 341v0v0c-25 0 -46 21 -46 46s21 45 46 45s45 -20 45 -45c0 -12 -4 -24 -13 -32c-8 -9 -20 -14 -32 -14zM79 -48c-14 0 -27 10 -27 30l1 278h-10v-105c0 -9 -3 -15 -6 -18c-4 -4 -9 -7 -15 -7s-12 3 -16 7c-3 3 -6 9 -6 18v122c0 14 5 27 14 38c10 12 24 18 39 18 h122c15 0 29 -6 39 -18c9 -11 14 -24 14 -38v-122c0 -7 -2 -14 -7 -18c-4 -4 -9 -7 -15 -7s-12 3 -16 7c-5 4 -6 11 -6 18v105h-9v-278c0 -20 -14 -30 -28 -30c-13 0 -26 10 -27 30v0v141h-12v-141v0c-1 -20 -15 -30 -29 -30z"/>
    <glyph glyph-name="ion-md-lock" unicode="" horiz-adv-x="320" d="M280 262c22 0 40 -18 40 -40v-200c0 -22 -18 -40 -40 -40h-240c-22 0 -40 18 -40 40v200c0 22 18 40 40 40h20v40c0 55 45 100 100 100s100 -45 100 -100v-40h20zM160 80c22 0 40 18 40 40s-18 40 -40 40s-40 -18 -40 -40s18 -40 40 -40zM222 262v40c0 34 -28 62 -62 62 s-62 -28 -62 -62v-40h124z"/>
    <glyph glyph-name="ion-ios-flask" unicode="" horiz-adv-x="385" d="M374 94c8 -16 11 -32 11 -46c-1 -36 -27 -64 -63 -64h-257c-36 0 -64 28 -65 64c0 14 4 30 12 46l116 194v2v78c0 2 -2 4 -4 4c-7 0 -12 5 -12 12v4c0 7 5 12 12 12h137c7 0 12 -5 12 -12v-4c0 -7 -5 -12 -12 -12c-2 0 -4 -2 -4 -4v-78v-2zM98 160h189c6 0 10 7 7 12 l-61 102c-3 5 -4 10 -4 16v78v4h-73v-4v-78c0 -6 -1 -11 -4 -16l-61 -102c-3 -5 1 -12 7 -12z"/>
    <glyph glyph-name="ion-md-remove-circle" unicode="" d="M208 400c115 0 208 -93 208 -208s-93 -208 -208 -208s-208 93 -208 208s93 208 208 208zM315 171v42h-214v-42h214z"/>
    <glyph glyph-name="ion-md-code-download" unicode="" horiz-adv-x="448" d="M203 288h42v-126l45 45l30 -31l-96 -96l-96 96l30 30l45 -44v126zM158 94l-30 -30l-128 128l128 128l30 -30l-98 -98zM290 94l98 98l-98 98l30 30l128 -128l-128 -128z"/>
    <glyph glyph-name="ion-ios-wine" unicode="" horiz-adv-x="208" d="M177 397c9 -25 31 -87 31 -125v-4v-1c0 -19 0 -45 -28 -74c-7 -7 -15 -13 -23 -20c-19 -15 -39 -31 -39 -50v-115c0 -1 1 -2 2 -2h57c8 0 15 -6 15 -14s-7 -14 -15 -14h-146c-8 0 -15 6 -15 14s7 14 15 14h57c1 0 2 1 2 2v115c0 19 -20 35 -39 50c-8 7 -17 13 -23 20 c-28 29 -28 55 -28 74v1v4c0 38 22 100 31 125c2 6 7 9 13 9h120c6 0 11 -3 13 -9zM176 295v1c-5 26 -15 60 -22 81c0 1 -1 1 -2 1h-96c-1 0 -2 0 -2 -1c-7 -21 -17 -55 -22 -81v-1s1 -1 2 -1h140c1 0 2 1 2 1z"/>
    <glyph glyph-name="ion-ios-expand" unicode="" horiz-adv-x="384" d="M48 356l117 -117c5 -5 5 -15 0 -20c-3 -3 -6 -4 -10 -4s-7 1 -10 4l-117 117v-78c0 -8 -6 -14 -14 -14v0c-8 0 -14 6 -14 14v112c0 8 6 14 14 14h112c8 0 14 -6 14 -14v0c0 -8 -6 -14 -14 -14h-78zM370 384c8 0 14 -6 14 -14v-112c0 -8 -6 -14 -14 -14v0 c-8 0 -14 6 -14 14v78l-117 -117c-3 -3 -6 -4 -10 -4s-7 1 -10 4c-5 5 -5 15 0 20l117 117h-78c-8 0 -14 6 -14 14v0c0 8 6 14 14 14h112zM155 169c4 0 7 -1 10 -4c5 -5 5 -15 0 -20l-117 -117h78c8 0 14 -6 14 -14v0c0 -8 -6 -14 -14 -14h-112c-8 0 -14 6 -14 14v112 c0 8 6 14 14 14v0c8 0 14 -6 14 -14v-78l117 117c3 3 6 4 10 4zM370 140c8 0 14 -6 14 -14v-112c0 -8 -6 -14 -14 -14h-112c-8 0 -14 6 -14 14v0c0 8 6 14 14 14h78l-117 117c-5 5 -5 15 0 20c3 3 6 4 10 4s7 -1 10 -4l117 -117v78c0 8 6 14 14 14v0z"/>
    <glyph glyph-name="ion-ios-list" unicode="" horiz-adv-x="384" d="M0 192c0 15 13 28 28 28s28 -13 28 -28s-13 -28 -28 -28s-28 13 -28 28zM0 316c0 15 13 28 28 28s28 -13 28 -28s-13 -28 -28 -28s-28 13 -28 28zM0 68c0 15 13 28 28 28s28 -13 28 -28s-13 -28 -28 -28s-28 13 -28 28zM368 208c9 0 16 -7 16 -16s-7 -16 -16 -16h-240 c-9 0 -16 7 -16 16s7 16 16 16h240zM368 84c9 0 16 -7 16 -16s-7 -16 -16 -16h-240c-9 0 -16 7 -16 16s7 16 16 16h240zM128 300c-9 0 -16 7 -16 16s7 16 16 16h240c9 0 16 -7 16 -16s-7 -16 -16 -16h-240z"/>
    <glyph glyph-name="ion-md-keypad" unicode="" horiz-adv-x="320" d="M160 50c22 0 40 -19 40 -41s-18 -41 -40 -41s-40 19 -40 41s18 41 40 41zM40 416c22 0 41 -19 41 -41s-19 -40 -41 -40s-40 18 -40 40s18 41 40 41zM40 294c22 0 41 -19 41 -41s-19 -41 -41 -41s-40 19 -40 41s18 41 40 41zM40 172c22 0 41 -19 41 -41s-19 -41 -41 -41 s-40 19 -40 41s18 41 40 41zM280 334c-22 0 -41 19 -41 41s19 41 41 41s40 -19 40 -41s-18 -41 -40 -41zM160 172c22 0 40 -19 40 -41s-18 -41 -40 -41s-40 19 -40 41s18 41 40 41zM280 172c22 0 40 -19 40 -41s-18 -41 -40 -41s-41 19 -41 41s19 41 41 41zM280 294 c22 0 40 -19 40 -41s-18 -41 -40 -41s-41 19 -41 41s19 41 41 41zM160 294c22 0 40 -19 40 -41s-18 -41 -40 -41s-40 19 -40 41s18 41 40 41zM160 416c22 0 40 -19 40 -41s-18 -40 -40 -40s-40 18 -40 40s18 41 40 41z"/>
    <glyph glyph-name="ion-logo-octocat" unicode="" horiz-adv-x="448" d="M146 160c8 0 16 -3 22 -12c6 -8 10 -20 10 -32s-4 -23 -10 -31s-14 -13 -22 -13c-9 0 -17 5 -23 13s-9 19 -9 31s3 24 9 32c6 9 14 12 23 12zM303 160c9 0 16 -3 22 -12c6 -8 9 -20 9 -32s-3 -23 -9 -31s-14 -13 -22 -13c-9 0 -17 5 -23 13s-10 19 -10 31s4 24 10 32 c6 9 14 12 23 12zM414 276c24 -27 34 -66 34 -96c0 -24 0 -46 -6 -65s-13 -35 -21 -47c-9 -12 -20 -23 -32 -32c-13 -9 -24 -17 -34 -21s-22 -7 -36 -9c-13 -2 -24 -4 -31 -4c0 0 -28 -2 -64 -2s-64 2 -64 2c-7 0 -18 2 -31 4c-14 2 -26 5 -36 9s-22 12 -34 21 c-13 9 -23 20 -32 32c-8 12 -15 28 -21 47c-5 19 -6 41 -6 65c0 31 10 70 34 96c0 0 -2 14 0 39s7 48 16 69c30 -3 67 -20 112 -51c15 4 36 6 62 6c28 0 48 -2 62 -6c20 14 40 25 58 33c19 8 33 13 41 15s13 3 13 3c9 -21 14 -44 16 -69s0 -39 0 -39v0zM348 42 c28 13 42 40 42 81c0 24 -8 43 -26 59c-9 8 -20 13 -32 15s-31 1 -56 -1s-40 -4 -52 -4s-25 2 -42 3s-30 3 -39 3c-10 0 -20 1 -31 -2s-21 -8 -28 -14c-17 -15 -25 -35 -25 -59c0 -41 13 -68 41 -81c27 -13 69 -18 123 -18h2c54 0 95 5 123 18z"/>
    <glyph glyph-name="ion-ios-planet" unicode="" d="M415 96c2 -6 2 -12 -1 -17c-3 -6 -11 -9 -22 -9c-37 0 -120 32 -208 81c-54 30 -103 64 -137 92c-38 32 -53 54 -45 67c4 7 11 10 23 10c16 0 48 -10 83 -24c3 -1 3 -5 1 -7l-11 -10c-1 -1 -2 -2 -4 -1c-21 8 -46 16 -57 19c-4 1 -6 -3 -4 -6c10 -13 25 -24 39 -35 c7 -6 15 -11 23 -17c8 21 23 39 41 52c21 15 44 23 70 23c32 0 63 -11 86 -33c24 -23 37 -54 37 -87c0 -26 -9 -51 -25 -72c10 -4 19 -8 28 -11c15 -6 34 -11 44 -13c3 -1 6 3 4 6c-6 8 -26 24 -42 36c-2 1 -3 4 -2 6l5 13c1 3 4 4 7 2c24 -18 45 -35 55 -47 c6 -7 10 -12 12 -18zM264 94c2 -1 4 -3 4 -5s-1 -4 -3 -5c-20 -13 -42 -20 -66 -20c-32 0 -63 12 -86 35s-36 53 -36 85c0 1 1 3 1 4c0 2 1 4 3 5c1 0 2 1 3 1s2 -1 3 -2c25 -17 54 -36 84 -53c33 -19 64 -32 93 -45z"/>
    <glyph glyph-name="ion-logo-usd" unicode="" horiz-adv-x="320" d="M315 145c3 -10 5 -19 5 -29c0 -21 -5 -38 -14 -53s-20 -26 -35 -35s-31 -17 -50 -21c-10 -2 -19 -3 -29 -4v-35h-64v35c-9 1 -19 4 -28 6c-20 5 -36 12 -51 23s-26 24 -35 41c-8 16 -13 34 -14 55h69c0 -12 2 -24 7 -33c5 -10 12 -17 21 -23s20 -11 31 -14v120 c-8 2 -18 4 -27 6c-17 4 -30 9 -41 16s-20 15 -27 23s-11 17 -14 26s-4 18 -4 28c0 18 4 34 12 48s19 25 33 34s29 16 46 20c7 2 15 3 22 4v33h64v-33c9 -1 16 -4 24 -6c18 -5 34 -12 48 -22s25 -22 33 -37c7 -13 11 -28 12 -46h-69c-3 21 -12 37 -26 46c-7 4 -13 8 -22 10 v-106c9 -2 16 -4 25 -6c12 -3 22 -6 27 -7c13 -4 23 -9 33 -15c10 -7 18 -14 24 -22s11 -17 14 -27zM128 238v92c-7 -2 -15 -4 -21 -7c-7 -4 -12 -9 -17 -15s-7 -14 -7 -23c0 -13 4 -24 13 -31c8 -7 20 -12 32 -16zM247 89c3 7 4 13 4 20c0 14 -3 24 -10 31s-15 11 -23 14 s-16 5 -26 8v-107c6 1 10 2 14 3c11 3 20 8 27 13s11 11 14 18z"/>
    <glyph glyph-name="ion-ios-bulb" unicode="" horiz-adv-x="296" d="M296 259c0 -31 -13 -56 -30 -80v0c-11 -15 -22 -18 -32 -35c-14 -24 -17 -41 -18 -56c0 -8 -8 -15 -16 -15h-10c-2 0 -4 2 -4 4v94c0 5 1 11 3 15l22 42c3 7 -1 15 -9 15v0c-4 0 -7 -3 -9 -6l-26 -51c-2 -4 -3 -9 -3 -14v-95c0 -2 -2 -4 -4 -4h-24c-2 0 -4 2 -4 4v95 c0 5 -1 10 -3 14l-26 51c-2 4 -5 6 -9 6v0c-8 0 -13 -8 -9 -15l21 -42c2 -4 3 -9 3 -14v-95c0 -2 -2 -4 -4 -4h-9c-8 0 -16 6 -16 15c-1 15 -4 31 -19 56c-10 17 -20 20 -31 35v0c-17 24 -30 49 -30 80c0 78 70 141 148 141s148 -63 148 -141zM130 -16c-8 0 -14 6 -14 14v0 c0 8 6 14 14 14h36c8 0 14 -6 14 -14v0c0 -8 -6 -14 -14 -14h-36zM110 28c-8 0 -14 6 -14 14v0c0 8 6 14 14 14h76c8 0 14 -6 14 -14v0c0 -8 -6 -14 -14 -14h-76z"/>
    <glyph glyph-name="ion-md-map" unicode="" horiz-adv-x="384" d="M373 384c6 0 11 -5 11 -11v-322c0 -5 -3 -9 -7 -10l-121 -41l-128 45s-105 -41 -108 -42s-7 -3 -9 -3c-6 0 -11 5 -11 11v322c0 5 3 9 7 10l121 41l128 -45s103 40 108 42s7 3 9 3zM256 43v254l-128 44v-254z"/>
    <glyph glyph-name="ion-md-time" unicode="" d="M208 400c115 0 208 -93 208 -208s-93 -208 -208 -208s-208 93 -208 208s93 208 208 208zM208 26c92 0 166 74 166 166s-74 166 -166 166s-166 -74 -166 -166s74 -166 166 -166zM218 296v-109l94 -56l-16 -25l-109 65v125h31z"/>
    <glyph glyph-name="ion-logo-ionitron" unicode="" horiz-adv-x="426" d="M425 179c3 -34 -4 -63 -19 -65h-7c-18 -79 -87 -141 -172 -146c-71 -4 -134 33 -169 89l-16 -3c-17 -2 -36 26 -41 64s5 71 22 73l12 1c17 80 86 142 172 147c77 4 145 -38 177 -103c11 -22 16 -46 17 -72c4 24 -2 57 -8 72c21 2 29 -23 32 -57zM47 184 c9 -13 18 -34 21 -58c3 -25 1 -46 -5 -61c9 10 17 36 13 64c-4 27 -18 47 -29 55zM231 68c8 0 15 8 15 16s-9 14 -17 14c-9 0 -14 -8 -14 -16s8 -14 16 -14zM312 72c8 0 15 9 15 17s-9 14 -17 14c-9 0 -14 -8 -14 -16s8 -15 16 -15zM123 378h-1c-1 1 0 3 0 4c0 3 2 6 5 9 s8 6 14 9c1 0 1 1 2 1c1 1 3 1 4 1c4 6 9 12 17 14c7 1 14 0 19 -4h2h2c6 0 12 1 16 0c3 -1 6 -2 8 -3c1 0 2 1 3 1c3 0 6 -3 6 -6s-3 -6 -6 -6v-1c-1 -1 -1 -2 -2 -3s-3 -2 -4 -3s-2 -1 -3 -2l-8 -5h-1l1 2l6 3c1 1 3 2 4 3l3 3s1 2 2 3v0c-2 1 -5 3 -5 6c0 1 0 2 1 3 c-2 1 -4 1 -6 1h-11v0h-4h-1c-7 -1 -14 -2 -22 -4c-1 0 -2 -1 -3 -1c14 3 24 3 29 2c2 -3 3 -6 4 -10c2 -12 -3 -23 -14 -28l4 -24l-13 -2l-4 24c-12 0 -21 9 -23 21c-1 4 -1 7 0 10v0c-1 0 -2 -1 -3 -1c-4 -2 -8 -5 -11 -7c-3 -3 -5 -6 -5 -8v-2c0 0 0 -1 1 -1 c2 -2 5 -3 9 -4c3 -1 7 -1 11 -1h1l2 -1h-3c-4 0 -9 1 -12 1c-4 1 -7 0 -9 2c-1 1 -2 2 -2 3v0v1v0v0v0z"/>
    </font>
</defs>
</svg>
